  0
SECTION
  2
HEADER
  9
$ACADVER
  1
AC1014
  9
$ACADMAINTVER
 70
     9
  9
$DWGCODEPAGE
  3
ANSI_1252
  9
$INSBASE
 10
0.0
 20
0.0
 30
0.0
  9
$EXTMIN
 10
-1.241598300156828
 20
-1.06
 30
0.0
  9
$EXTMAX
 10
7.24851484796285
 20
4.003462858323583
 30
0.0
  9
$LIMMIN
 10
0.0
 20
0.0
  9
$LIMMAX
 10
12.0
 20
9.0
  9
$ORTHOMODE
 70
     0
  9
$REGENMODE
 70
     1
  9
$FILLMODE
 70
     1
  9
$QTEXTMODE
 70
     0
  9
$MIRRTEXT
 70
     1
  9
$DRAGMODE
 70
     2
  9
$LTSCALE
 40
1.0
  9
$OSMODE
 70
   511
  9
$ATTMODE
 70
     1
  9
$TEXTSIZE
 40
0.075
  9
$TRACEWID
 40
0.05
  9
$TEXTSTYLE
  7
STANDARD
  9
$CLAYER
  8
DIMS
  9
$CELTYPE
  6
BYLAYER
  9
$CECOLOR
 62
   256
  9
$CELTSCALE
 40
1.0
  9
$DELOBJ
 70
     1
  9
$DISPSILH
 70
     0
  9
$DIMSCALE
 40
1.0
  9
$DIMASZ
 40
0.1
  9
$DIMEXO
 40
0.1
  9
$DIMDLI
 40
0.3800000000000001
  9
$DIMRND
 40
0.0
  9
$DIMDLE
 40
0.0
  9
$DIMEXE
 40
0.06
  9
$DIMTP
 40
0.0
  9
$DIMTM
 40
0.0
  9
$DIMTXT
 40
0.18
  9
$DIMCEN
 40
0.09
  9
$DIMTSZ
 40
0.0
  9
$DIMTOL
 70
     0
  9
$DIMLIM
 70
     0
  9
$DIMTIH
 70
     1
  9
$DIMTOH
 70
     1
  9
$DIMSE1
 70
     0
  9
$DIMSE2
 70
     0
  9
$DIMTAD
 70
     0
  9
$DIMZIN
 70
     0
  9
$DIMBLK
  1

  9
$DIMASO
 70
     1
  9
$DIMSHO
 70
     1
  9
$DIMPOST
  1

  9
$DIMAPOST
  1

  9
$DIMALT
 70
     0
  9
$DIMALTD
 70
     2
  9
$DIMALTF
 40
25.4
  9
$DIMLFAC
 40
1.0
  9
$DIMTOFL
 70
     0
  9
$DIMTVP
 40
0.0
  9
$DIMTIX
 70
     0
  9
$DIMSOXD
 70
     0
  9
$DIMSAH
 70
     0
  9
$DIMBLK1
  1

  9
$DIMBLK2
  1

  9
$DIMSTYLE
  2
DEF_STANDARD
  9
$DIMCLRD
 70
     0
  9
$DIMCLRE
 70
     0
  9
$DIMCLRT
 70
     0
  9
$DIMTFAC
 40
1.0
  9
$DIMGAP
 40
0.0
  9
$DIMJUST
 70
     0
  9
$DIMSD1
 70
     0
  9
$DIMSD2
 70
     0
  9
$DIMTOLJ
 70
     1
  9
$DIMTZIN
 70
     0
  9
$DIMALTZ
 70
     0
  9
$DIMALTTZ
 70
     0
  9
$DIMFIT
 70
     5
  9
$DIMUPT
 70
     0
  9
$DIMUNIT
 70
     2
  9
$DIMDEC
 70
     3
  9
$DIMTDEC
 70
     4
  9
$DIMALTU
 70
     2
  9
$DIMALTTD
 70
     2
  9
$DIMTXSTY
  7
STANDARD
  9
$DIMAUNIT
 70
     0
  9
$LUNITS
 70
     2
  9
$LUPREC
 70
     4
  9
$SKETCHINC
 40
0.1
  9
$FILLETRAD
 40
0.5
  9
$AUNITS
 70
     0
  9
$AUPREC
 70
     0
  9
$MENU
  1
.
  9
$ELEVATION
 40
0.0
  9
$PELEVATION
 40
0.0
  9
$THICKNESS
 40
0.0
  9
$LIMCHECK
 70
     0
  9
$CHAMFERA
 40
0.5
  9
$CHAMFERB
 40
0.5
  9
$CHAMFERC
 40
1.0
  9
$CHAMFERD
 40
0.0
  9
$SKPOLY
 70
     0
  9
$TDCREATE
 40
2456051.97663662
  9
$TDUPDATE
 40
2458159.70932772
  9
$TDINDWG
 40
0.1864229977
  9
$TDUSRTIMER
 40
2458159.997197558
  9
$USRTIMER
 70
     1
  9
$ANGBASE
 50
0.0
  9
$ANGDIR
 70
     0
  9
$PDMODE
 70
     0
  9
$PDSIZE
 40
0.0
  9
$PLINEWID
 40
0.0
  9
$COORDS
 70
     1
  9
$SPLFRAME
 70
     0
  9
$SPLINETYPE
 70
     6
  9
$SPLINESEGS
 70
     8
  9
$ATTDIA
 70
     0
  9
$ATTREQ
 70
     1
  9
$HANDLING
 70
     1
  9
$HANDSEED
  5
1AD3
  9
$SURFTAB1
 70
     6
  9
$SURFTAB2
 70
     6
  9
$SURFTYPE
 70
     6
  9
$SURFU
 70
     6
  9
$SURFV
 70
     6
  9
$UCSNAME
  2

  9
$UCSORG
 10
0.0
 20
0.0
 30
0.0
  9
$UCSXDIR
 10
1.0
 20
0.0
 30
0.0
  9
$UCSYDIR
 10
0.0
 20
1.0
 30
0.0
  9
$PUCSNAME
  2

  9
$PUCSORG
 10
0.0
 20
0.0
 30
0.0
  9
$PUCSXDIR
 10
1.0
 20
0.0
 30
0.0
  9
$PUCSYDIR
 10
0.0
 20
1.0
 30
0.0
  9
$USERI1
 70
     0
  9
$USERI2
 70
     0
  9
$USERI3
 70
     0
  9
$USERI4
 70
     0
  9
$USERI5
 70
     0
  9
$USERR1
 40
0.0
  9
$USERR2
 40
0.0
  9
$USERR3
 40
0.0
  9
$USERR4
 40
0.0
  9
$USERR5
 40
0.0
  9
$WORLDVIEW
 70
     1
  9
$SHADEDGE
 70
     3
  9
$SHADEDIF
 70
    70
  9
$TILEMODE
 70
     1
  9
$MAXACTVP
 70
    48
  9
$PINSBASE
 10
0.0
 20
0.0
 30
0.0
  9
$PLIMCHECK
 70
     0
  9
$PEXTMIN
 10
1.000000000000000E+20
 20
1.000000000000000E+20
 30
1.000000000000000E+20
  9
$PEXTMAX
 10
-1.000000000000000E+20
 20
-1.000000000000000E+20
 30
-1.000000000000000E+20
  9
$PLIMMIN
 10
0.0
 20
0.0
  9
$PLIMMAX
 10
0.0
 20
0.0
  9
$UNITMODE
 70
     0
  9
$VISRETAIN
 70
     1
  9
$PLINEGEN
 70
     0
  9
$PSLTSCALE
 70
     1
  9
$TREEDEPTH
 70
  3020
  9
$PICKSTYLE
 70
     0
  9
$CMLSTYLE
  2
STANDARD
  9
$CMLJUST
 70
     0
  9
$CMLSCALE
 40
1.0
  9
$PROXYGRAPHICS
 70
     1
  9
$MEASUREMENT
 70
     0
  0
ENDSEC
  0
SECTION
  2
CLASSES
  0
CLASS
  1
LWPOLYLINE
  2
AcDbPolyline
  3
ObjectDBX Classes
 90
        0
280
     0
281
     1
  0
CLASS
  1
IMAGE
  2
AcDbRasterImage
  3
ISM
 90
      127
280
     0
281
     1
  0
CLASS
  1
OLE2FRAME
  2
AcDbOle2Frame
  3
ObjectDBX Classes
 90
        0
280
     0
281
     1
  0
CLASS
  1
HATCH
  2
AcDbHatch
  3
ObjectDBX Classes
 90
        0
280
     0
281
     1
  0
CLASS
  1
DICTIONARYVAR
  2
AcDbDictionaryVar
  3
ObjectDBX Classes
 90
        0
280
     0
281
     0
  0
CLASS
  1
RASTERVARIABLES
  2
AcDbRasterVariables
  3
ISM
 90
        0
280
     0
281
     0
  0
CLASS
  1
IMAGEDEF
  2
AcDbRasterImageDef
  3
ISM
 90
        0
280
     0
281
     0
  0
CLASS
  1
IMAGEDEF_REACTOR
  2
AcDbRasterImageDefReactor
  3
ISM
 90
        1
280
     0
281
     0
  0
CLASS
  1
IDBUFFER
  2
AcDbIdBuffer
  3
ObjectDBX Classes
 90
        0
280
     0
281
     0
  0
CLASS
  1
SPATIAL_FILTER
  2
AcDbSpatialFilter
  3
ObjectDBX Classes
 90
        0
280
     0
281
     0
  0
CLASS
  1
XRECORD
  2
AcDbXrecord
  3
ObjectDBX Classes
 90
        0
280
     0
281
     0
  0
CLASS
  1
SORTENTSTABLE
  2
AcDbSortentsTable
  3
ObjectDBX Classes
 90
        0
280
     0
281
     0
  0
CLASS
  1
LAYER_INDEX
  2
AcDbLayerIndex
  3
ObjectDBX Classes
 90
        0
280
     0
281
     0
  0
CLASS
  1
SPATIAL_INDEX
  2
AcDbSpatialIndex
  3
AutoCAD 2000
 90
        0
280
     0
281
     0
  0
CLASS
  1
OBJECT_PTR
  2
CAseDLPNTableRecord
  3
ASE-LPNTableRecord
 90
        1
280
     0
281
     0
  0
CLASS
  1
LAYOUT
  2
AcDbLayout
  3
ObjectDBX Classes
 90
        0
280
     0
281
     0
  0
CLASS
  1
PLOTSETTINGS
  2
AcDbPlotSettings
  3
ObjectDBX Classes
 90
        0
280
     0
281
     0
  0
CLASS
  1
ACDBDICTIONARYWDFLT
  2
AcDbDictionaryWithDefault
  3
ObjectDBX Classes
 90
        0
280
     0
281
     0
  0
CLASS
  1
ACDBPLACEHOLDER
  2
AcDbPlaceHolder
  3
ObjectDBX Classes
 90
        0
280
     0
281
     0
  0
CLASS
  1
VBA_PROJECT
  2
AcDbVbaProject
  3
ObjectDBX Classes
 90
        0
280
     0
281
     0
  0
CLASS
  1
WIPEOUT
  2
AcDbWipeout
  3
WipeOut|AutoCAD Express Tool|expresstools@autodesk.com
 90
      127
280
     0
281
     1
  0
CLASS
  1
WIPEOUTVARIABLES
  2
AcDbWipeoutVariables
  3
WipeOut|AutoCAD Express Tool|expresstools@autodesk.com
 90
        0
280
     0
281
     0
  0
CLASS
  1
RTEXT
  2
RText
  3
RText|AutoCAD Express Tool|expresstools@autodesk.com
 90
        0
280
     0
281
     1
  0
CLASS
  1
ARCALIGNEDTEXT
  2
AcDbArcAlignedText
  3
ATEXT|AutoCAD Express Tool|expresstools@autodesk.com
 90
        0
280
     0
281
     1
  0
CLASS
  1
DIMASSOC
  2
AcDbDimAssoc
  3
"AcDbDimAssoc|Product Desc:     AcDim ARX App For Dimension|Company:          Autodesk, Inc.|WEB Address:      www.autodesk.com"
 90
        0
280
     0
281
     0
  0
CLASS
  1
VISUALSTYLE
  2
AcDbVisualStyle
  3
ObjectDBX Classes
 90
     4095
280
     0
281
     0
  0
CLASS
  1
SCALE
  2
AcDbScale
  3
ObjectDBX Classes
 90
     1153
280
     0
281
     0
  0
CLASS
  1
MATERIAL
  2
AcDbMaterial
  3
ObjectDBX Classes
 90
     1153
280
     0
281
     0
  0
CLASS
  1
TABLESTYLE
  2
AcDbTableStyle
  3
ObjectDBX Classes
 90
     4095
280
     0
281
     0
  0
CLASS
  1
SUN
  2
AcDbSun
  3
SCENEOE
 90
     1153
280
     0
281
     0
  0
ENDSEC
  0
SECTION
  2
TABLES
  0
TABLE
  2
VPORT
  5
8
330
0
100
AcDbSymbolTable
 70
     2
  0
VPORT
  5
A69
330
8
100
AcDbSymbolTableRecord
100
AcDbViewportTableRecord
  2
*ACTIVE
 70
     0
 10
0.0
 20
0.0
 11
1.0
 21
1.0
 12
3.83876329987115
 22
1.228963368534801
 13
0.0
 23
0.0
 14
0.2
 24
0.2
 15
0.5
 25
0.5
 16
0.0
 26
0.0
 36
1.0
 17
0.0
 27
0.0
 37
0.0
 40
8.074880015152932
 41
2.057644110275689
 42
50.0
 43
0.0
 44
0.0
 50
0.0
 51
0.0
 71
    16
 72
   100
 73
     1
 74
     1
 75
     0
 76
     0
 77
     0
 78
     0
  0
ENDTAB
  0
TABLE
  2
LTYPE
  5
5
330
0
100
AcDbSymbolTable
 70
     1
  0
LTYPE
  5
12
330
5
100
AcDbSymbolTableRecord
100
AcDbLinetypeTableRecord
  2
BYBLOCK
 70
     0
  3

 72
    65
 73
     0
 40
0.0
  0
LTYPE
  5
13
330
5
100
AcDbSymbolTableRecord
100
AcDbLinetypeTableRecord
  2
BYLAYER
 70
     0
  3

 72
    65
 73
     0
 40
0.0
  0
LTYPE
  5
14
330
5
100
AcDbSymbolTableRecord
100
AcDbLinetypeTableRecord
  2
CONTINUOUS
 70
     0
  3
Solid line
 72
    65
 73
     0
 40
0.0
  0
ENDTAB
  0
TABLE
  2
LAYER
  5
2
102
{ACAD_XDICTIONARY
360
1AAB
102
}
330
0
100
AcDbSymbolTable
 70
     3
  0
LAYER
  5
E
330
2
100
AcDbSymbolTableRecord
100
AcDbLayerTableRecord
  2
0
 70
     0
 62
     7
  6
CONTINUOUS
  0
LAYER
  5
72
330
2
100
AcDbSymbolTableRecord
100
AcDbLayerTableRecord
  2
DIMS
 70
     0
 62
    10
  6
CONTINUOUS
  0
LAYER
  5
BE
330
2
100
AcDbSymbolTableRecord
100
AcDbLayerTableRecord
  2
DEFPOINTS
 70
     0
 62
     7
  6
CONTINUOUS
  0
ENDTAB
  0
TABLE
  2
STYLE
  5
3
330
0
100
AcDbSymbolTable
 70
     1
  0
STYLE
  5
F
330
3
100
AcDbSymbolTableRecord
100
AcDbTextStyleTableRecord
  2
STANDARD
 70
     0
 40
0.075
 41
1.0
 50
0.0
 71
     0
 42
0.075
  3
ARIAL.TTF
  4

1001
ACAD
1000
Arial
1071
       34
  0
ENDTAB
  0
TABLE
  2
VIEW
  5
6
330
0
100
AcDbSymbolTable
 70
     0
  0
ENDTAB
  0
TABLE
  2
UCS
  5
7
330
0
100
AcDbSymbolTable
 70
     0
  0
ENDTAB
  0
TABLE
  2
APPID
  5
9
330
0
100
AcDbSymbolTable
 70
     1
  0
APPID
  5
10
330
9
100
AcDbSymbolTableRecord
100
AcDbRegAppTableRecord
  2
ACAD
 70
     0
  0
ENDTAB
  0
TABLE
  2
DIMSTYLE
  5
A
330
0
100
AcDbSymbolTable
 70
     2
  0
DIMSTYLE
105
1D
102
{ACAD_REACTORS
330
185
330
1DC
330
1EA
330
1F8
330
206
330
215
330
23B
330
249
330
478
330
486
330
51B
330
143
330
68D
330
737
330
8D3
102
}
330
A
100
AcDbSymbolTableRecord
100
AcDbDimStyleTableRecord
  2
STANDARD
 70
     0
  3

  4

  5

  6

  7

 40
1.0
 41
0.18
 42
0.0625
 43
0.38
 44
0.18
 45
0.0
 46
0.0
 47
0.0
 48
0.0
140
0.18
141
0.09
142
0.0
143
25.4
144
1.0
145
0.0
146
1.0
147
0.09
 71
     0
 72
     0
 73
     1
 74
     1
 75
     0
 76
     0
 77
     0
 78
     0
170
     0
171
     2
172
     0
173
     0
174
     0
175
     0
176
     0
177
     0
178
     0
270
     2
271
     4
272
     4
273
     2
274
     2
340
F
275
     0
280
     0
281
     0
282
     0
283
     1
284
     0
285
     0
286
     0
287
     3
288
     0
  0
DIMSTYLE
105
DC1
102
{ACAD_REACTORS
330
1AAF
330
1ABF
102
}
330
A
100
AcDbSymbolTableRecord
100
AcDbDimStyleTableRecord
  2
DEF_STANDARD
 70
     0
  3

  4

  5

  6

  7

 40
1.0
 41
0.1
 42
0.1
 43
0.3800000000000001
 44
0.06
 45
0.0
 46
0.0
 47
0.0
 48
0.0
140
0.18
141
0.09
142
0.0
143
25.4
144
1.0
145
0.0
146
1.0
147
0.0
 71
     0
 72
     0
 73
     1
 74
     1
 75
     0
 76
     0
 77
     0
 78
     0
170
     0
171
     2
172
     0
173
     0
174
     0
175
     0
176
     0
177
     0
178
     0
270
     2
271
     3
272
     4
273
     2
274
     2
340
F
275
     0
280
     0
281
     0
282
     0
283
     1
284
     0
285
     0
286
     0
287
     5
288
     0
  0
ENDTAB
  0
TABLE
  2
BLOCK_RECORD
  5
1
330
0
100
AcDbSymbolTable
 70
    44
  0
BLOCK_RECORD
  5
18
330
1
100
AcDbSymbolTableRecord
100
AcDbBlockTableRecord
  2
*MODEL_SPACE
  0
BLOCK_RECORD
  5
15
330
1
100
AcDbSymbolTableRecord
100
AcDbBlockTableRecord
  2
*PAPER_SPACE
  0
BLOCK_RECORD
  5
3E
330
1
100
AcDbSymbolTableRecord
100
AcDbBlockTableRecord
  2
A$C582C6E64
  0
BLOCK_RECORD
  5
60
330
1
100
AcDbSymbolTableRecord
100
AcDbBlockTableRecord
  2
A$C774343C3
  0
BLOCK_RECORD
  5
67
330
1
100
AcDbSymbolTableRecord
100
AcDbBlockTableRecord
  2
A$C0BDF41E5
  0
BLOCK_RECORD
  5
5A0
330
1
100
AcDbSymbolTableRecord
100
AcDbBlockTableRecord
  2
A$C67DD202D
  0
BLOCK_RECORD
  5
716
330
1
100
AcDbSymbolTableRecord
100
AcDbBlockTableRecord
  2
A$C3E03409D
  0
BLOCK_RECORD
  5
8BF
330
1
100
AcDbSymbolTableRecord
100
AcDbBlockTableRecord
  2
A$C5C1E3DC5
  0
BLOCK_RECORD
  5
A5E
330
1
100
AcDbSymbolTableRecord
100
AcDbBlockTableRecord
  2
A$C7D752150
  0
BLOCK_RECORD
  5
1932
330
1
100
AcDbSymbolTableRecord
100
AcDbBlockTableRecord
  2
*D24
  0
BLOCK_RECORD
  5
193E
330
1
100
AcDbSymbolTableRecord
100
AcDbBlockTableRecord
  2
*D25
  0
BLOCK_RECORD
  5
194A
330
1
100
AcDbSymbolTableRecord
100
AcDbBlockTableRecord
  2
*D26
  0
BLOCK_RECORD
  5
1956
330
1
100
AcDbSymbolTableRecord
100
AcDbBlockTableRecord
  2
*D27
  0
BLOCK_RECORD
  5
1962
330
1
100
AcDbSymbolTableRecord
100
AcDbBlockTableRecord
  2
*D28
  0
BLOCK_RECORD
  5
196E
330
1
100
AcDbSymbolTableRecord
100
AcDbBlockTableRecord
  2
*D29
  0
BLOCK_RECORD
  5
197A
330
1
100
AcDbSymbolTableRecord
100
AcDbBlockTableRecord
  2
*D30
  0
BLOCK_RECORD
  5
1986
330
1
100
AcDbSymbolTableRecord
100
AcDbBlockTableRecord
  2
*D31
  0
BLOCK_RECORD
  5
1992
330
1
100
AcDbSymbolTableRecord
100
AcDbBlockTableRecord
  2
*D32
  0
BLOCK_RECORD
  5
199E
330
1
100
AcDbSymbolTableRecord
100
AcDbBlockTableRecord
  2
*D33
  0
BLOCK_RECORD
  5
19AA
330
1
100
AcDbSymbolTableRecord
100
AcDbBlockTableRecord
  2
*D34
  0
BLOCK_RECORD
  5
19B7
330
1
100
AcDbSymbolTableRecord
100
AcDbBlockTableRecord
  2
*D35
  0
BLOCK_RECORD
  5
19C3
330
1
100
AcDbSymbolTableRecord
100
AcDbBlockTableRecord
  2
*D36
  0
BLOCK_RECORD
  5
19CE
330
1
100
AcDbSymbolTableRecord
100
AcDbBlockTableRecord
  2
*D37
  0
BLOCK_RECORD
  5
19DA
330
1
100
AcDbSymbolTableRecord
100
AcDbBlockTableRecord
  2
*D38
  0
BLOCK_RECORD
  5
19E6
330
1
100
AcDbSymbolTableRecord
100
AcDbBlockTableRecord
  2
*D39
  0
BLOCK_RECORD
  5
19F1
330
1
100
AcDbSymbolTableRecord
100
AcDbBlockTableRecord
  2
*D40
  0
BLOCK_RECORD
  5
1AB2
330
1
100
AcDbSymbolTableRecord
100
AcDbBlockTableRecord
  2
*D42
  0
BLOCK_RECORD
  5
1AC2
330
1
100
AcDbSymbolTableRecord
100
AcDbBlockTableRecord
  2
*D43
  0
ENDTAB
  0
ENDSEC
  0
SECTION
  2
BLOCKS
  0
BLOCK
  5
19
330
18
100
AcDbEntity
  8
0
100
AcDbBlockBegin
  2
*MODEL_SPACE
 70
     0
 10
0.0
 20
0.0
 30
0.0
  3
*MODEL_SPACE
  1

  0
ENDBLK
  5
1A
330
18
100
AcDbEntity
  8
0
100
AcDbBlockEnd
  0
BLOCK
  5
16
330
15
100
AcDbEntity
 67
     1
  8
0
100
AcDbBlockBegin
  2
*PAPER_SPACE
 70
     0
 10
0.0
 20
0.0
 30
0.0
  3
*PAPER_SPACE
  1

  0
ENDBLK
  5
17
330
15
100
AcDbEntity
 67
     1
  8
0
100
AcDbBlockEnd
  0
BLOCK
  5
44
330
3E
100
AcDbEntity
  8
0
100
AcDbBlockBegin
  2
A$C582C6E64
 70
     0
 10
0.0
 20
0.0
 30
0.0
  3
A$C582C6E64
  1
A$C582C6E64
  0
CIRCLE
  5
3F
330
3E
100
AcDbEntity
  8
0
100
AcDbCircle
 10
0.019999999418356
 20
0.0199999917019315
 30
0.0
 40
0.02
  0
CIRCLE
  5
40
330
3E
100
AcDbEntity
  8
0
100
AcDbCircle
 10
0.2199999994183559
 20
0.0199999917019315
 30
0.0
 40
0.02
  0
CIRCLE
  5
41
330
3E
100
AcDbEntity
  8
0
100
AcDbCircle
 10
0.1199999994183559
 20
0.0199999917019315
 30
0.0
 40
0.02
  0
CIRCLE
  5
42
330
3E
100
AcDbEntity
  8
0
100
AcDbCircle
 10
0.4199999994183559
 20
0.0199999917019315
 30
0.0
 40
0.02
  0
CIRCLE
  5
43
330
3E
100
AcDbEntity
  8
0
100
AcDbCircle
 10
0.319999999418356
 20
0.0199999917019315
 30
0.0
 40
0.02
  0
ENDBLK
  5
45
330
3E
100
AcDbEntity
  8
0
100
AcDbBlockEnd
  0
BLOCK
  5
62
330
60
100
AcDbEntity
  8
0
100
AcDbBlockBegin
  2
A$C774343C3
 70
     0
 10
0.0
 20
0.0
 30
0.0
  3
A$C774343C3
  1
A$C774343C3
  0
CIRCLE
  5
61
330
60
100
AcDbEntity
  8
0
100
AcDbCircle
 10
0.0200000222020733
 20
0.0199999917019315
 30
0.0
 40
0.02
  0
ENDBLK
  5
63
330
60
100
AcDbEntity
  8
0
100
AcDbBlockEnd
  0
BLOCK
  5
69
330
67
100
AcDbEntity
  8
0
100
AcDbBlockBegin
  2
A$C0BDF41E5
 70
     0
 10
0.0
 20
0.0
 30
0.0
  3
A$C0BDF41E5
  1
A$C0BDF41E5
  0
CIRCLE
  5
68
330
67
100
AcDbEntity
  8
0
100
AcDbCircle
 10
0.0200000222020733
 20
0.0199999917019316
 30
0.0
 40
0.02
  0
ENDBLK
  5
6A
330
67
100
AcDbEntity
  8
0
100
AcDbBlockEnd
  0
BLOCK
  5
5A2
330
5A0
100
AcDbEntity
  8
0
100
AcDbBlockBegin
  2
A$C67DD202D
 70
     0
 10
0.0
 20
0.0
 30
0.0
  3
A$C67DD202D
  1
A$C67DD202D
  0
LWPOLYLINE
  5
5A1
330
5A0
100
AcDbEntity
  8
0
100
AcDbPolyline
 90
        4
 70
     1
 43
0.0
 10
-0.0000000054799358
 20
0.0511799961305398
 10
-0.0000000054799358
 20
-0.0000000038694602
 10
0.0511799945200642
 20
-0.0000000038694602
 10
0.0511799945200642
 20
0.0511799961305398
  0
ENDBLK
  5
5A3
330
5A0
100
AcDbEntity
  8
0
100
AcDbBlockEnd
  0
BLOCK
  5
718
330
716
100
AcDbEntity
  8
0
100
AcDbBlockBegin
  2
A$C3E03409D
 70
     0
 10
0.0
 20
0.0
 30
0.0
  3
A$C3E03409D
  1
A$C3E03409D
  0
LWPOLYLINE
  5
717
330
716
100
AcDbEntity
  8
DIMS
100
AcDbPolyline
 90
        3
 70
     1
 43
0.0
 10
0.1732050807568877
 20
0.2999999999999998
 10
0.0
 20
0.0
 10
0.3464101615137753
 20
0.0
  0
ENDBLK
  5
719
330
716
100
AcDbEntity
  8
0
100
AcDbBlockEnd
  0
BLOCK
  5
8C1
330
8BF
100
AcDbEntity
  8
0
100
AcDbBlockBegin
  2
A$C5C1E3DC5
 70
     0
 10
0.0
 20
0.0
 30
0.0
  3
A$C5C1E3DC5
  1
A$C5C1E3DC5
  0
CIRCLE
  5
8C0
330
8BF
100
AcDbEntity
  8
0
100
AcDbCircle
 10
0.0200000063388061
 20
0.0200000013038797
 30
0.0
 40
0.02
  0
ENDBLK
  5
8C2
330
8BF
100
AcDbEntity
  8
0
100
AcDbBlockEnd
  0
BLOCK
  5
A60
330
A5E
100
AcDbEntity
  8
0
100
AcDbBlockBegin
  2
A$C7D752150
 70
     0
 10
0.0
 20
0.0
 30
0.0
  3
A$C7D752150
  1
A$C7D752150
  0
MTEXT
  5
A5F
330
A5E
100
AcDbEntity
  8
DIMS
100
AcDbMText
 10
0.0727789857122687
 20
0.5209900548887028
 30
0.0
 40
0.375
 41
3.809761084525974
 71
     1
 72
     5
  1
\fDenmark|b0|i0|c0|p2;LabJack\fArial|b0|i0|c0|p34; - U6
  0
ENDBLK
  5
A61
330
A5E
100
AcDbEntity
  8
0
100
AcDbBlockEnd
  0
BLOCK
  5
1927
330
1932
100
AcDbEntity
  8
0
100
AcDbBlockBegin
  2
*D24
 70
     1
 10
0.0
 20
0.0
 30
0.0
  3
*D24
  1
*D24
  0
POINT
  5
1928
330
1932
100
AcDbEntity
  8
DEFPOINTS
  6
BYBLOCK
 62
     0
100
AcDbPoint
 10
0.0
 20
-0.0000000000000004
 30
0.0
  0
POINT
  5
1929
330
1932
100
AcDbEntity
  8
DEFPOINTS
  6
BYBLOCK
 62
     0
100
AcDbPoint
 10
0.8999999999999999
 20
0.4999999999999996
 30
0.0
  0
LINE
  5
192A
330
1932
100
AcDbEntity
  8
0
  6
BYBLOCK
 62
     0
100
AcDbLine
 10
0.0
 20
-0.1000000000000004
 30
0.0
 11
0.0
 21
-0.46
 31
0.0
  0
LINE
  5
192B
330
1932
100
AcDbEntity
  8
0
  6
BYBLOCK
 62
     0
100
AcDbLine
 10
0.8999999999999999
 20
0.3999999999999996
 30
0.0
 11
0.8999999999999999
 21
-0.46
 31
0.0
  0
LINE
  5
192C
330
1932
100
AcDbEntity
  8
0
  6
BYBLOCK
 62
     0
100
AcDbLine
 10
0.0
 20
-0.4
 30
0.0
 11
0.1424240449921261
 21
-0.4
 31
0.0
  0
SOLID
  5
192D
330
1932
100
AcDbEntity
  8
0
  6
BYBLOCK
 62
     0
100
AcDbTrace
 10
0.0
 20
-0.4
 30
0.0
 11
0.1
 21
-0.41666666666667
 31
0.0
 12
0.1
 22
-0.38333333333333
 32
0.0
 13
0.1
 23
-0.38333333333333
 33
0.0
  0
LINE
  5
192E
330
1932
100
AcDbEntity
  8
0
  6
BYBLOCK
 62
     0
100
AcDbLine
 10
0.8999999999999999
 20
-0.4
 30
0.0
 11
0.7390437633019853
 21
-0.4
 31
0.0
  0
SOLID
  5
192F
330
1932
100
AcDbEntity
  8
0
  6
BYBLOCK
 62
     0
100
AcDbTrace
 10
0.8999999999999999
 20
-0.4
 30
0.0
 11
0.7999999999999999
 21
-0.41666666666667
 31
0.0
 12
0.7999999999999999
 22
-0.38333333333333
 32
0.0
 13
0.7999999999999999
 23
-0.38333333333333
 33
0.0
  0
MTEXT
  5
1930
330
1932
100
AcDbEntity
  8
0
  6
BYBLOCK
 62
     0
100
AcDbMText
 10
0.4407339041470557
 20
-0.4
 30
0.0
 40
0.075
 41
0.0
 71
     5
 72
     1
  1
\A1;0.900
  0
ENDBLK
  5
1931
330
1932
100
AcDbEntity
  8
DIMS
100
AcDbBlockEnd
  0
BLOCK
  5
1933
330
193E
100
AcDbEntity
  8
0
100
AcDbBlockBegin
  2
*D25
 70
     1
 10
0.0
 20
0.0
 30
0.0
  3
*D25
  1
*D25
  0
POINT
  5
1934
330
193E
100
AcDbEntity
  8
DEFPOINTS
  6
BYBLOCK
 62
     0
100
AcDbPoint
 10
0.0
 20
-0.0000000000000004
 30
0.0
  0
POINT
  5
1935
330
193E
100
AcDbEntity
  8
DEFPOINTS
  6
BYBLOCK
 62
     0
100
AcDbPoint
 10
0.8999999999999999
 20
0.4999999999999996
 30
0.0
  0
LINE
  5
1936
330
193E
100
AcDbEntity
  8
0
  6
BYBLOCK
 62
     0
100
AcDbLine
 10
-0.1
 20
-0.0000000000000004
 30
0.0
 11
-0.3497616692180756
 21
-0.0000000000000004
 31
0.0
  0
LINE
  5
1937
330
193E
100
AcDbEntity
  8
0
  6
BYBLOCK
 62
     0
100
AcDbLine
 10
0.7999999999999999
 20
0.4999999999999996
 30
0.0
 11
-0.3497616692180756
 21
0.4999999999999996
 31
0.0
  0
LINE
  5
1938
330
193E
100
AcDbEntity
  8
0
  6
BYBLOCK
 62
     0
100
AcDbLine
 10
-0.2872616692180756
 20
0.0999999999999996
 30
0.0
 11
-0.2872616692180756
 21
0.1590489744302244
 31
0.0
  0
SOLID
  5
1939
330
193E
100
AcDbEntity
  8
0
  6
BYBLOCK
 62
     0
100
AcDbTrace
 10
-0.2872616692180756
 20
-0.0000000000000004
 30
0.0
 11
-0.2705950025514056
 21
0.0999999999999996
 31
0.0
 12
-0.3039283358847455
 22
0.0999999999999996
 32
0.0
 13
-0.3039283358847455
 23
0.0999999999999996
 33
0.0
  0
LINE
  5
193A
330
193E
100
AcDbEntity
  8
0
  6
BYBLOCK
 62
     0
100
AcDbLine
 10
-0.2872616692180756
 20
0.3999999999999996
 30
0.0
 11
-0.2872616692180756
 21
0.3397733205066831
 31
0.0
  0
SOLID
  5
193B
330
193E
100
AcDbEntity
  8
0
  6
BYBLOCK
 62
     0
100
AcDbTrace
 10
-0.2872616692180756
 20
0.4999999999999996
 30
0.0
 11
-0.2705950025514056
 21
0.3999999999999996
 31
0.0
 12
-0.3039283358847455
 22
0.3999999999999996
 32
0.0
 13
-0.3039283358847455
 23
0.3999999999999996
 33
0.0
  0
MTEXT
  5
193C
330
193E
100
AcDbEntity
  8
0
  6
BYBLOCK
 62
     0
100
AcDbMText
 10
-0.2872616692180756
 20
0.2494111474684537
 30
0.0
 40
0.075
 41
0.0
 71
     5
 72
     1
  1
\A1;0.500
  0
ENDBLK
  5
193D
330
193E
100
AcDbEntity
  8
DIMS
100
AcDbBlockEnd
  0
BLOCK
  5
193F
330
194A
100
AcDbEntity
  8
0
100
AcDbBlockBegin
  2
*D26
 70
     1
 10
0.0
 20
0.0
 30
0.0
  3
*D26
  1
*D26
  0
POINT
  5
1940
330
194A
100
AcDbEntity
  8
DEFPOINTS
  6
BYBLOCK
 62
     0
100
AcDbPoint
 10
0.0
 20
-0.0000000000000004
 30
0.0
  0
POINT
  5
1941
330
194A
100
AcDbEntity
  8
DEFPOINTS
  6
BYBLOCK
 62
     0
100
AcDbPoint
 10
0.8999999999999999
 20
2.1
 30
0.0
  0
LINE
  5
1942
330
194A
100
AcDbEntity
  8
0
  6
BYBLOCK
 62
     0
100
AcDbLine
 10
-0.1
 20
-0.0000000000000004
 30
0.0
 11
-0.9133734786467627
 21
-0.0000000000000004
 31
0.0
  0
LINE
  5
1943
330
194A
100
AcDbEntity
  8
0
  6
BYBLOCK
 62
     0
100
AcDbLine
 10
0.7999999999999999
 20
2.1
 30
0.0
 11
-0.9133734786467627
 21
2.1
 31
0.0
  0
LINE
  5
1944
330
194A
100
AcDbEntity
  8
0
  6
BYBLOCK
 62
     0
100
AcDbLine
 10
-0.8533734786467626
 20
-0.0000000000000004
 30
0.0
 11
-0.8533734786467626
 21
0.9379785444552806
 31
0.0
  0
SOLID
  5
1945
330
194A
100
AcDbEntity
  8
0
  6
BYBLOCK
 62
     0
100
AcDbTrace
 10
-0.8533734786467626
 20
-0.0000000000000004
 30
0.0
 11
-0.8367068119800926
 21
0.0999999999999996
 31
0.0
 12
-0.8700401453134327
 22
0.0999999999999996
 32
0.0
 13
-0.8700401453134327
 23
0.0999999999999996
 33
0.0
  0
LINE
  5
1946
330
194A
100
AcDbEntity
  8
0
  6
BYBLOCK
 62
     0
100
AcDbLine
 10
-0.8533734786467626
 20
2.1
 30
0.0
 11
-0.8533734786467626
 21
1.118702890531739
 31
0.0
  0
SOLID
  5
1947
330
194A
100
AcDbEntity
  8
0
  6
BYBLOCK
 62
     0
100
AcDbTrace
 10
-0.8533734786467626
 20
2.1
 30
0.0
 11
-0.8367068119800926
 21
2.0
 31
0.0
 12
-0.8700401453134327
 22
2.0
 32
0.0
 13
-0.8700401453134327
 23
2.0
 33
0.0
  0
MTEXT
  5
1948
330
194A
100
AcDbEntity
  8
0
  6
BYBLOCK
 62
     0
100
AcDbMText
 10
-0.8533734786467626
 20
1.02834071749351
 30
0.0
 40
0.075
 41
0.0
 71
     5
 72
     1
  1
\A1;2.100
  0
ENDBLK
  5
1949
330
194A
100
AcDbEntity
  8
DIMS
100
AcDbBlockEnd
  0
BLOCK
  5
194B
330
1956
100
AcDbEntity
  8
0
100
AcDbBlockBegin
  2
*D27
 70
     1
 10
0.0
 20
0.0
 30
0.0
  3
*D27
  1
*D27
  0
POINT
  5
194C
330
1956
100
AcDbEntity
  8
DEFPOINTS
  6
BYBLOCK
 62
     0
100
AcDbPoint
 10
0.0
 20
-0.0000000000000004
 30
0.0
  0
POINT
  5
194D
330
1956
100
AcDbEntity
  8
DEFPOINTS
  6
BYBLOCK
 62
     0
100
AcDbPoint
 10
3.6
 20
-0.0000000000000004
 30
0.0
  0
LINE
  5
194E
330
1956
100
AcDbEntity
  8
0
  6
BYBLOCK
 62
     0
100
AcDbLine
 10
0.0
 20
-0.1000000000000004
 30
0.0
 11
0.0
 21
-1.06
 31
0.0
  0
LINE
  5
194F
330
1956
100
AcDbEntity
  8
0
  6
BYBLOCK
 62
     0
100
AcDbLine
 10
3.6
 20
-0.1000000000000004
 30
0.0
 11
3.6
 21
-1.06
 31
0.0
  0
LINE
  5
1950
330
1956
100
AcDbEntity
  8
0
  6
BYBLOCK
 62
     0
100
AcDbLine
 10
0.0
 20
-1.0
 30
0.0
 11
1.5083941939407
 21
-1.0
 31
0.0
  0
SOLID
  5
1951
330
1956
100
AcDbEntity
  8
0
  6
BYBLOCK
 62
     0
100
AcDbTrace
 10
0.0
 20
-1.0
 30
0.0
 11
0.1
 21
-1.01666666666667
 31
0.0
 12
0.1
 22
-0.98333333333333
 32
0.0
 13
0.1
 23
-0.98333333333333
 33
0.0
  0
LINE
  5
1952
330
1956
100
AcDbEntity
  8
0
  6
BYBLOCK
 62
     0
100
AcDbLine
 10
3.6
 20
-1.0
 30
0.0
 11
2.104893187904483
 21
-1.0
 31
0.0
  0
SOLID
  5
1953
330
1956
100
AcDbEntity
  8
0
  6
BYBLOCK
 62
     0
100
AcDbTrace
 10
3.6
 20
-1.0
 30
0.0
 11
3.5
 21
-1.01666666666667
 31
0.0
 12
3.5
 22
-0.98333333333333
 32
0.0
 13
3.5
 23
-0.98333333333333
 33
0.0
  0
MTEXT
  5
1954
330
1956
100
AcDbEntity
  8
0
  6
BYBLOCK
 62
     0
100
AcDbMText
 10
1.806643690922591
 20
-1.0
 30
0.0
 40
0.075
 41
0.0
 71
     5
 72
     1
  1
\A1;3.600
  0
ENDBLK
  5
1955
330
1956
100
AcDbEntity
  8
DIMS
100
AcDbBlockEnd
  0
BLOCK
  5
1957
330
1962
100
AcDbEntity
  8
0
100
AcDbBlockBegin
  2
*D28
 70
     1
 10
0.0
 20
0.0
 30
0.0
  3
*D28
  1
*D28
  0
POINT
  5
1958
330
1962
100
AcDbEntity
  8
DEFPOINTS
  6
BYBLOCK
 62
     0
100
AcDbPoint
 10
0.0
 20
-0.0000000000000004
 30
0.0
  0
POINT
  5
1959
330
1962
100
AcDbEntity
  8
DEFPOINTS
  6
BYBLOCK
 62
     0
100
AcDbPoint
 10
0.0
 20
2.6
 30
0.0
  0
LINE
  5
195A
330
1962
100
AcDbEntity
  8
0
  6
BYBLOCK
 62
     0
100
AcDbLine
 10
-0.1
 20
-0.0000000000000004
 30
0.0
 11
-1.175718018466687
 21
-0.0000000000000004
 31
0.0
  0
LINE
  5
195B
330
1962
100
AcDbEntity
  8
0
  6
BYBLOCK
 62
     0
100
AcDbLine
 10
-0.1
 20
2.6
 30
0.0
 11
-1.175718018466687
 21
2.6
 31
0.0
  0
LINE
  5
195C
330
1962
100
AcDbEntity
  8
0
  6
BYBLOCK
 62
     0
100
AcDbLine
 10
-1.115718018466687
 20
-0.0000000000000004
 30
0.0
 11
-1.115718018466687
 21
1.190203352604036
 31
0.0
  0
SOLID
  5
195D
330
1962
100
AcDbEntity
  8
0
  6
BYBLOCK
 62
     0
100
AcDbTrace
 10
-1.115718018466687
 20
-0.0000000000000004
 30
0.0
 11
-1.099051351800017
 21
0.0999999999999996
 31
0.0
 12
-1.132384685133357
 22
0.0999999999999996
 32
0.0
 13
-1.132384685133357
 23
0.0999999999999996
 33
0.0
  0
LINE
  5
195E
330
1962
100
AcDbEntity
  8
0
  6
BYBLOCK
 62
     0
100
AcDbLine
 10
-1.115718018466687
 20
2.6
 30
0.0
 11
-1.115718018466687
 21
1.370927698680494
 31
0.0
  0
SOLID
  5
195F
330
1962
100
AcDbEntity
  8
0
  6
BYBLOCK
 62
     0
100
AcDbTrace
 10
-1.115718018466687
 20
2.6
 30
0.0
 11
-1.099051351800017
 21
2.5
 31
0.0
 12
-1.132384685133357
 22
2.5
 32
0.0
 13
-1.132384685133357
 23
2.5
 33
0.0
  0
MTEXT
  5
1960
330
1962
100
AcDbEntity
  8
0
  6
BYBLOCK
 62
     0
100
AcDbMText
 10
-1.115718018466687
 20
1.280565525642265
 30
0.0
 40
0.075
 41
0.0
 71
     5
 72
     1
  1
\A1;2.600
  0
ENDBLK
  5
1961
330
1962
100
AcDbEntity
  8
DIMS
100
AcDbBlockEnd
  0
BLOCK
  5
1963
330
196E
100
AcDbEntity
  8
0
100
AcDbBlockBegin
  2
*D29
 70
     1
 10
0.0
 20
0.0
 30
0.0
  3
*D29
  1
*D29
  0
POINT
  5
1964
330
196E
100
AcDbEntity
  8
DEFPOINTS
  6
BYBLOCK
 62
     0
100
AcDbPoint
 10
0.0
 20
-0.0000000000000004
 30
0.0
  0
POINT
  5
1965
330
196E
100
AcDbEntity
  8
DEFPOINTS
  6
BYBLOCK
 62
     0
100
AcDbPoint
 10
2.0
 20
0.59
 30
0.0
  0
LINE
  5
1966
330
196E
100
AcDbEntity
  8
0
  6
BYBLOCK
 62
     0
100
AcDbLine
 10
0.0
 20
-0.1000000000000004
 30
0.0
 11
0.0
 21
-0.6600000000000001
 31
0.0
  0
LINE
  5
1967
330
196E
100
AcDbEntity
  8
0
  6
BYBLOCK
 62
     0
100
AcDbLine
 10
2.0
 20
0.49
 30
0.0
 11
2.0
 21
-0.6600000000000001
 31
0.0
  0
LINE
  5
1968
330
196E
100
AcDbEntity
  8
0
  6
BYBLOCK
 62
     0
100
AcDbLine
 10
0.0
 20
-0.6000000000000001
 30
0.0
 11
0.7125587664215234
 21
-0.6000000000000001
 31
0.0
  0
SOLID
  5
1969
330
196E
100
AcDbEntity
  8
0
  6
BYBLOCK
 62
     0
100
AcDbTrace
 10
0.0
 20
-0.6000000000000001
 30
0.0
 11
0.1
 21
-0.6166666666666701
 31
0.0
 12
0.1
 22
-0.58333333333333
 32
0.0
 13
0.1
 23
-0.58333333333333
 33
0.0
  0
LINE
  5
196A
330
196E
100
AcDbEntity
  8
0
  6
BYBLOCK
 62
     0
100
AcDbLine
 10
2.0
 20
-0.6000000000000001
 30
0.0
 11
1.31211611048591
 21
-0.6000000000000001
 31
0.0
  0
SOLID
  5
196B
330
196E
100
AcDbEntity
  8
0
  6
BYBLOCK
 62
     0
100
AcDbTrace
 10
2.0
 20
-0.6000000000000001
 30
0.0
 11
1.9
 21
-0.6166666666666701
 31
0.0
 12
1.9
 22
-0.58333333333333
 32
0.0
 13
1.9
 23
-0.58333333333333
 33
0.0
  0
MTEXT
  5
196C
330
196E
100
AcDbEntity
  8
0
  6
BYBLOCK
 62
     0
100
AcDbMText
 10
1.012337438453716
 20
-0.6000000000000001
 30
0.0
 40
0.075
 41
0.0
 71
     5
 72
     1
  1
\A1;2.000
  0
ENDBLK
  5
196D
330
196E
100
AcDbEntity
  8
DIMS
100
AcDbBlockEnd
  0
BLOCK
  5
196F
330
197A
100
AcDbEntity
  8
0
100
AcDbBlockBegin
  2
*D30
 70
     1
 10
0.0
 20
0.0
 30
0.0
  3
*D30
  1
*D30
  0
POINT
  5
1970
330
197A
100
AcDbEntity
  8
DEFPOINTS
  6
BYBLOCK
 62
     0
100
AcDbPoint
 10
3.6
 20
-0.0000000000000004
 30
0.0
  0
POINT
  5
1971
330
197A
100
AcDbEntity
  8
DEFPOINTS
  6
BYBLOCK
 62
     0
100
AcDbPoint
 10
2.0
 20
0.59
 30
0.0
  0
LINE
  5
1972
330
197A
100
AcDbEntity
  8
0
  6
BYBLOCK
 62
     0
100
AcDbLine
 10
3.7
 20
-0.0000000000000004
 30
0.0
 11
4.242138960480615
 21
-0.0000000000000004
 31
0.0
  0
LINE
  5
1973
330
197A
100
AcDbEntity
  8
0
  6
BYBLOCK
 62
     0
100
AcDbLine
 10
2.1
 20
0.59
 30
0.0
 11
4.242138960480615
 21
0.59
 31
0.0
  0
LINE
  5
1974
330
197A
100
AcDbEntity
  8
0
  6
BYBLOCK
 62
     0
100
AcDbLine
 10
4.182138960480614
 20
-0.0000000000000004
 30
0.0
 11
4.182138960480614
 21
0.1813448528826434
 31
0.0
  0
SOLID
  5
1975
330
197A
100
AcDbEntity
  8
0
  6
BYBLOCK
 62
     0
100
AcDbTrace
 10
4.182138960480614
 20
-0.0000000000000004
 30
0.0
 11
4.198805627147284
 21
0.0999999999999996
 31
0.0
 12
4.165472293813944
 22
0.0999999999999996
 32
0.0
 13
4.165472293813944
 23
0.0999999999999996
 33
0.0
  0
LINE
  5
1976
330
197A
100
AcDbEntity
  8
0
  6
BYBLOCK
 62
     0
100
AcDbLine
 10
4.182138960480614
 20
0.59
 30
0.0
 11
4.182138960480614
 21
0.3620691989591022
 31
0.0
  0
SOLID
  5
1977
330
197A
100
AcDbEntity
  8
0
  6
BYBLOCK
 62
     0
100
AcDbTrace
 10
4.182138960480614
 20
0.59
 30
0.0
 11
4.198805627147284
 21
0.49
 31
0.0
 12
4.165472293813944
 22
0.49
 32
0.0
 13
4.165472293813944
 23
0.49
 33
0.0
  0
MTEXT
  5
1978
330
197A
100
AcDbEntity
  8
0
  6
BYBLOCK
 62
     0
100
AcDbMText
 10
4.182138960480614
 20
0.2717070259208728
 30
0.0
 40
0.075
 41
0.0
 71
     5
 72
     1
  1
\A1;0.590
  0
ENDBLK
  5
1979
330
197A
100
AcDbEntity
  8
DIMS
100
AcDbBlockEnd
  0
BLOCK
  5
197B
330
1986
100
AcDbEntity
  8
0
100
AcDbBlockBegin
  2
*D31
 70
     1
 10
0.0
 20
0.0
 30
0.0
  3
*D31
  1
*D31
  0
POINT
  5
197C
330
1986
100
AcDbEntity
  8
DEFPOINTS
  6
BYBLOCK
 62
     0
100
AcDbPoint
 10
3.6
 20
-0.0000000000000004
 30
0.0
  0
POINT
  5
197D
330
1986
100
AcDbEntity
  8
DEFPOINTS
  6
BYBLOCK
 62
     0
100
AcDbPoint
 10
3.4
 20
1.65
 30
0.0
  0
LINE
  5
197E
330
1986
100
AcDbEntity
  8
0
  6
BYBLOCK
 62
     0
100
AcDbLine
 10
3.7
 20
-0.0000000000000004
 30
0.0
 11
4.464841636270888
 21
-0.0000000000000004
 31
0.0
  0
LINE
  5
197F
330
1986
100
AcDbEntity
  8
0
  6
BYBLOCK
 62
     0
100
AcDbLine
 10
3.5
 20
1.65
 30
0.0
 11
4.464841636270888
 21
1.65
 31
0.0
  0
LINE
  5
1980
330
1986
100
AcDbEntity
  8
0
  6
BYBLOCK
 62
     0
100
AcDbLine
 10
4.404841636270888
 20
-0.0000000000000004
 30
0.0
 11
4.404841636270888
 21
0.7346378269617704
 31
0.0
  0
SOLID
  5
1981
330
1986
100
AcDbEntity
  8
0
  6
BYBLOCK
 62
     0
100
AcDbTrace
 10
4.404841636270888
 20
-0.0000000000000004
 30
0.0
 11
4.421508302937558
 21
0.0999999999999996
 31
0.0
 12
4.388174969604218
 22
0.0999999999999996
 32
0.0
 13
4.388174969604218
 23
0.0999999999999996
 33
0.0
  0
LINE
  5
1982
330
1986
100
AcDbEntity
  8
0
  6
BYBLOCK
 62
     0
100
AcDbLine
 10
4.404841636270888
 20
1.65
 30
0.0
 11
4.404841636270888
 21
0.9153621730382291
 31
0.0
  0
SOLID
  5
1983
330
1986
100
AcDbEntity
  8
0
  6
BYBLOCK
 62
     0
100
AcDbTrace
 10
4.404841636270888
 20
1.65
 30
0.0
 11
4.421508302937558
 21
1.55
 31
0.0
 12
4.388174969604218
 22
1.55
 32
0.0
 13
4.388174969604218
 23
1.55
 33
0.0
  0
MTEXT
  5
1984
330
1986
100
AcDbEntity
  8
0
  6
BYBLOCK
 62
     0
100
AcDbMText
 10
4.404841636270888
 20
0.8249999999999997
 30
0.0
 40
0.075
 41
0.0
 71
     5
 72
     1
  1
\A1;1.650
  0
ENDBLK
  5
1985
330
1986
100
AcDbEntity
  8
DIMS
100
AcDbBlockEnd
  0
BLOCK
  5
1987
330
1992
100
AcDbEntity
  8
0
100
AcDbBlockBegin
  2
*D32
 70
     1
 10
0.0
 20
0.0
 30
0.0
  3
*D32
  1
*D32
  0
POINT
  5
1988
330
1992
100
AcDbEntity
  8
DEFPOINTS
  6
BYBLOCK
 62
     0
100
AcDbPoint
 10
3.6
 20
-0.0000000000000004
 30
0.0
  0
POINT
  5
1989
330
1992
100
AcDbEntity
  8
DEFPOINTS
  6
BYBLOCK
 62
     0
100
AcDbPoint
 10
2.2
 20
2.1
 30
0.0
  0
LINE
  5
198A
330
1992
100
AcDbEntity
  8
0
  6
BYBLOCK
 62
     0
100
AcDbLine
 10
3.7
 20
-0.0000000000000004
 30
0.0
 11
4.724661441235069
 21
-0.0000000000000004
 31
0.0
  0
LINE
  5
198B
330
1992
100
AcDbEntity
  8
0
  6
BYBLOCK
 62
     0
100
AcDbLine
 10
2.3
 20
2.1
 30
0.0
 11
4.724661441235069
 21
2.1
 31
0.0
  0
LINE
  5
198C
330
1992
100
AcDbEntity
  8
0
  6
BYBLOCK
 62
     0
100
AcDbLine
 10
4.664661441235069
 20
-0.0000000000000004
 30
0.0
 11
4.664661441235069
 21
0.9596378269617702
 31
0.0
  0
SOLID
  5
198D
330
1992
100
AcDbEntity
  8
0
  6
BYBLOCK
 62
     0
100
AcDbTrace
 10
4.664661441235069
 20
-0.0000000000000004
 30
0.0
 11
4.681328107901739
 21
0.0999999999999996
 31
0.0
 12
4.647994774568398
 22
0.0999999999999996
 32
0.0
 13
4.647994774568398
 23
0.0999999999999996
 33
0.0
  0
LINE
  5
198E
330
1992
100
AcDbEntity
  8
0
  6
BYBLOCK
 62
     0
100
AcDbLine
 10
4.664661441235069
 20
2.1
 30
0.0
 11
4.664661441235069
 21
1.140362173038229
 31
0.0
  0
SOLID
  5
198F
330
1992
100
AcDbEntity
  8
0
  6
BYBLOCK
 62
     0
100
AcDbTrace
 10
4.664661441235069
 20
2.1
 30
0.0
 11
4.681328107901739
 21
2.0
 31
0.0
 12
4.647994774568398
 22
2.0
 32
0.0
 13
4.647994774568398
 23
2.0
 33
0.0
  0
MTEXT
  5
1990
330
1992
100
AcDbEntity
  8
0
  6
BYBLOCK
 62
     0
100
AcDbMText
 10
4.664661441235069
 20
1.05
 30
0.0
 40
0.075
 41
0.0
 71
     5
 72
     1
  1
\A1;2.100
  0
ENDBLK
  5
1991
330
1992
100
AcDbEntity
  8
DIMS
100
AcDbBlockEnd
  0
BLOCK
  5
1993
330
199E
100
AcDbEntity
  8
0
100
AcDbBlockBegin
  2
*D33
 70
     1
 10
0.0
 20
0.0
 30
0.0
  3
*D33
  1
*D33
  0
POINT
  5
1994
330
199E
100
AcDbEntity
  8
DEFPOINTS
  6
BYBLOCK
 62
     0
100
AcDbPoint
 10
0.0
 20
2.6
 30
0.0
  0
POINT
  5
1995
330
199E
100
AcDbEntity
  8
DEFPOINTS
  6
BYBLOCK
 62
     0
100
AcDbPoint
 10
2.2
 20
2.1
 30
0.0
  0
LINE
  5
1996
330
199E
100
AcDbEntity
  8
0
  6
BYBLOCK
 62
     0
100
AcDbLine
 10
0.0
 20
2.7
 30
0.0
 11
0.0
 21
2.852266425945524
 31
0.0
  0
LINE
  5
1997
330
199E
100
AcDbEntity
  8
0
  6
BYBLOCK
 62
     0
100
AcDbLine
 10
2.2
 20
2.2
 30
0.0
 11
2.2
 21
2.852266425945524
 31
0.0
  0
LINE
  5
1998
330
199E
100
AcDbEntity
  8
0
  6
BYBLOCK
 62
     0
100
AcDbLine
 10
0.0
 20
2.792266425945524
 30
0.0
 11
0.8016398594220073
 21
2.792266425945524
 31
0.0
  0
SOLID
  5
1999
330
199E
100
AcDbEntity
  8
0
  6
BYBLOCK
 62
     0
100
AcDbTrace
 10
0.0
 20
2.792266425945524
 30
0.0
 11
0.1
 21
2.775599759278854
 31
0.0
 12
0.1
 22
2.808933092612194
 32
0.0
 13
0.1
 23
2.808933092612194
 33
0.0
  0
LINE
  5
199A
330
199E
100
AcDbEntity
  8
0
  6
BYBLOCK
 62
     0
100
AcDbLine
 10
2.2
 20
2.792266425945524
 30
0.0
 11
1.401197203486394
 21
2.792266425945524
 31
0.0
  0
SOLID
  5
199B
330
199E
100
AcDbEntity
  8
0
  6
BYBLOCK
 62
     0
100
AcDbTrace
 10
2.2
 20
2.792266425945524
 30
0.0
 11
2.1
 21
2.775599759278854
 31
0.0
 12
2.1
 22
2.808933092612194
 32
0.0
 13
2.1
 23
2.808933092612194
 33
0.0
  0
MTEXT
  5
199C
330
199E
100
AcDbEntity
  8
0
  6
BYBLOCK
 62
     0
100
AcDbMText
 10
1.1014185314542
 20
2.792266425945524
 30
0.0
 40
0.075
 41
0.0
 71
     5
 72
     1
  1
\A1;2.200
  0
ENDBLK
  5
199D
330
199E
100
AcDbEntity
  8
DIMS
100
AcDbBlockEnd
  0
BLOCK
  5
199F
330
19AA
100
AcDbEntity
  8
0
100
AcDbBlockBegin
  2
*D34
 70
     1
 10
0.0
 20
0.0
 30
0.0
  3
*D34
  1
*D34
  0
POINT
  5
19A0
330
19AA
100
AcDbEntity
  8
DEFPOINTS
  6
BYBLOCK
 62
     0
100
AcDbPoint
 10
0.0
 20
2.6
 30
0.0
  0
POINT
  5
19A1
330
19AA
100
AcDbEntity
  8
DEFPOINTS
  6
BYBLOCK
 62
     0
100
AcDbPoint
 10
3.4
 20
1.65
 30
0.0
  0
LINE
  5
19A2
330
19AA
100
AcDbEntity
  8
0
  6
BYBLOCK
 62
     0
100
AcDbLine
 10
0.0
 20
2.7
 30
0.0
 11
0.0
 21
3.09401124100553
 31
0.0
  0
LINE
  5
19A3
330
19AA
100
AcDbEntity
  8
0
  6
BYBLOCK
 62
     0
100
AcDbLine
 10
3.4
 20
1.75
 30
0.0
 11
3.4
 21
3.09401124100553
 31
0.0
  0
LINE
  5
19A4
330
19AA
100
AcDbEntity
  8
0
  6
BYBLOCK
 62
     0
100
AcDbLine
 10
0.0
 20
3.03401124100553
 30
0.0
 11
1.401750503018109
 21
3.03401124100553
 31
0.0
  0
SOLID
  5
19A5
330
19AA
100
AcDbEntity
  8
0
  6
BYBLOCK
 62
     0
100
AcDbTrace
 10
0.0
 20
3.03401124100553
 30
0.0
 11
0.1
 21
3.01734457433886
 31
0.0
 12
0.1
 22
3.0506779076722
 32
0.0
 13
0.1
 23
3.0506779076722
 33
0.0
  0
LINE
  5
19A6
330
19AA
100
AcDbEntity
  8
0
  6
BYBLOCK
 62
     0
100
AcDbLine
 10
3.4
 20
3.03401124100553
 30
0.0
 11
1.998249496981891
 21
3.03401124100553
 31
0.0
  0
SOLID
  5
19A7
330
19AA
100
AcDbEntity
  8
0
  6
BYBLOCK
 62
     0
100
AcDbTrace
 10
3.4
 20
3.03401124100553
 30
0.0
 11
3.3
 21
3.01734457433886
 31
0.0
 12
3.3
 22
3.0506779076722
 32
0.0
 13
3.3
 23
3.0506779076722
 33
0.0
  0
MTEXT
  5
19A8
330
19AA
100
AcDbEntity
  8
0
  6
BYBLOCK
 62
     0
100
AcDbMText
 10
1.7
 20
3.03401124100553
 30
0.0
 40
0.075
 41
0.0
 71
     5
 72
     1
  1
\A1;3.400
  0
ENDBLK
  5
19A9
330
19AA
100
AcDbEntity
  8
DIMS
100
AcDbBlockEnd
  0
BLOCK
  5
19AB
330
19B7
100
AcDbEntity
  8
0
100
AcDbBlockBegin
  2
*D35
 70
     1
 10
0.0
 20
0.0
 30
0.0
  3
*D35
  1
*D35
  0
POINT
  5
19AC
330
19B7
100
AcDbEntity
  8
DEFPOINTS
  6
BYBLOCK
 62
     0
100
AcDbPoint
 10
0.0
 20
3.803462858323583
 30
0.0
  0
POINT
  5
19AD
330
19B7
100
AcDbEntity
  8
DEFPOINTS
  6
BYBLOCK
 62
     0
100
AcDbPoint
 10
0.0
 20
3.738462858323583
 30
0.0
  0
LINE
  5
19AE
330
19B7
100
AcDbEntity
  8
0
  6
BYBLOCK
 62
     0
100
AcDbLine
 10
-0.1
 20
3.803462858323583
 30
0.0
 11
-0.3591667562763646
 21
3.803462858323583
 31
0.0
  0
LINE
  5
19AF
330
19B7
100
AcDbEntity
  8
0
  6
BYBLOCK
 62
     0
100
AcDbLine
 10
-0.1
 20
3.738462858323583
 30
0.0
 11
-0.3591667562763646
 21
3.738462858323583
 31
0.0
  0
LINE
  5
19B0
330
19B7
100
AcDbEntity
  8
0
  6
BYBLOCK
 62
     0
100
AcDbLine
 10
-0.2591667562763647
 20
3.903462858323583
 30
0.0
 11
-0.2591667562763647
 21
4.003462858323583
 31
0.0
  0
SOLID
  5
19B1
330
19B7
100
AcDbEntity
  8
0
  6
BYBLOCK
 62
     0
100
AcDbTrace
 10
-0.2591667562763647
 20
3.803462858323583
 30
0.0
 11
-0.2758334229430346
 21
3.903462858323583
 31
0.0
 12
-0.2425000896096947
 22
3.903462858323583
 32
0.0
 13
-0.2425000896096947
 23
3.903462858323583
 33
0.0
  0
LINE
  5
19B2
330
19B7
100
AcDbEntity
  8
0
  6
BYBLOCK
 62
     0
100
AcDbLine
 10
-0.2591667562763647
 20
3.638462858323583
 30
0.0
 11
-0.2591667562763647
 21
3.538462858323583
 31
0.0
  0
SOLID
  5
19B3
330
19B7
100
AcDbEntity
  8
0
  6
BYBLOCK
 62
     0
100
AcDbTrace
 10
-0.2591667562763647
 20
3.738462858323583
 30
0.0
 11
-0.2758334229430346
 21
3.638462858323583
 31
0.0
 12
-0.2425000896096947
 22
3.638462858323583
 32
0.0
 13
-0.2425000896096947
 23
3.638462858323583
 33
0.0
  0
LINE
  5
19B4
330
19B7
100
AcDbEntity
  8
0
  6
BYBLOCK
 62
     0
100
AcDbLine
 10
-0.2591667562763647
 20
3.538462858323583
 30
0.0
 11
-0.3591667562763646
 21
3.538462858323583
 31
0.0
  0
MTEXT
  5
19B5
330
19B7
100
AcDbEntity
  8
0
  6
BYBLOCK
 62
     0
100
AcDbMText
 10
-0.7484424101999059
 20
3.538462858323583
 30
0.0
 40
0.075
 41
0.0
 71
     5
 72
     1
  1
\A1;0.065
  0
ENDBLK
  5
19B6
330
19B7
100
AcDbEntity
  8
DIMS
100
AcDbBlockEnd
  0
BLOCK
  5
19B8
330
19C3
100
AcDbEntity
  8
0
100
AcDbBlockBegin
  2
*D36
 70
     1
 10
0.0
 20
0.0
 30
0.0
  3
*D36
  1
*D36
  0
POINT
  5
19B9
330
19C3
100
AcDbEntity
  8
DEFPOINTS
  6
BYBLOCK
 62
     0
100
AcDbPoint
 10
0.0
 20
-0.0000000000000004
 30
0.0
  0
POINT
  5
19BA
330
19C3
100
AcDbEntity
  8
DEFPOINTS
  6
BYBLOCK
 62
     0
100
AcDbPoint
 10
2.7
 20
0.4999999999999996
 30
0.0
  0
LINE
  5
19BB
330
19C3
100
AcDbEntity
  8
0
  6
BYBLOCK
 62
     0
100
AcDbLine
 10
0.0
 20
-0.1000000000000004
 30
0.0
 11
0.0
 21
-0.8600000000000001
 31
0.0
  0
LINE
  5
19BC
330
19C3
100
AcDbEntity
  8
0
  6
BYBLOCK
 62
     0
100
AcDbLine
 10
2.7
 20
0.3999999999999996
 30
0.0
 11
2.7
 21
-0.8600000000000001
 31
0.0
  0
LINE
  5
19BD
330
19C3
100
AcDbEntity
  8
0
  6
BYBLOCK
 62
     0
100
AcDbLine
 10
0.0
 20
-0.8
 30
0.0
 11
1.06888308106748
 21
-0.8
 31
0.0
  0
SOLID
  5
19BE
330
19C3
100
AcDbEntity
  8
0
  6
BYBLOCK
 62
     0
100
AcDbTrace
 10
0.0
 20
-0.8
 30
0.0
 11
0.1
 21
-0.8166666666666701
 31
0.0
 12
0.1
 22
-0.78333333333333
 32
0.0
 13
0.1
 23
-0.78333333333333
 33
0.0
  0
LINE
  5
19BF
330
19C3
100
AcDbEntity
  8
0
  6
BYBLOCK
 62
     0
100
AcDbLine
 10
2.7
 20
-0.8
 30
0.0
 11
1.668440425131866
 21
-0.8
 31
0.0
  0
SOLID
  5
19C0
330
19C3
100
AcDbEntity
  8
0
  6
BYBLOCK
 62
     0
100
AcDbTrace
 10
2.7
 20
-0.8
 30
0.0
 11
2.6
 21
-0.8166666666666701
 31
0.0
 12
2.6
 22
-0.78333333333333
 32
0.0
 13
2.6
 23
-0.78333333333333
 33
0.0
  0
MTEXT
  5
19C1
330
19C3
100
AcDbEntity
  8
0
  6
BYBLOCK
 62
     0
100
AcDbMText
 10
1.368661753099673
 20
-0.8
 30
0.0
 40
0.075
 41
0.0
 71
     5
 72
     1
  1
\A1;2.700
  0
ENDBLK
  5
19C2
330
19C3
100
AcDbEntity
  8
DIMS
100
AcDbBlockEnd
  0
BLOCK
  5
19C4
330
19CE
100
AcDbEntity
  8
0
100
AcDbBlockBegin
  2
*D37
 70
     1
 10
0.0
 20
0.0
 30
0.0
  3
*D37
  1
*D37
  0
LINE
  5
19C5
330
19CE
100
AcDbEntity
  8
0
  6
BYBLOCK
 62
     0
100
AcDbLine
 10
0.8100000000000002
 20
0.4999999999999996
 30
0.0
 11
0.9900000000000001
 21
0.4999999999999996
 31
0.0
  0
LINE
  5
19C6
330
19CE
100
AcDbEntity
  8
0
  6
BYBLOCK
 62
     0
100
AcDbLine
 10
0.9000000000000001
 20
0.5899999999999995
 30
0.0
 11
0.9000000000000001
 21
0.4099999999999996
 31
0.0
  0
LINE
  5
19C7
330
19CE
100
AcDbEntity
  8
0
  6
BYBLOCK
 62
     0
100
AcDbLine
 10
0.9462488017813682
 20
0.3054208430129581
 30
0.0
 11
1.070559726961594
 21
-0.2175833018337125
 31
0.0
  0
LINE
  5
19C8
330
19CE
100
AcDbEntity
  8
0
  6
BYBLOCK
 62
     0
100
AcDbLine
 10
1.070559726961594
 20
-0.2175833018337125
 30
0.0
 11
1.250559726961594
 21
-0.2175833018337125
 31
0.0
  0
SOLID
  5
19C9
330
19CE
100
AcDbEntity
  8
0
  6
BYBLOCK
 62
     0
100
AcDbTrace
 10
0.9231244008906841
 20
0.4027104215064788
 30
0.0
 11
0.9300338720324447
 21
0.3015667761978433
 31
0.0
 12
0.9624637315302915
 22
0.3092749098280729
 32
0.0
 13
0.9624637315302915
 23
0.3092749098280729
 33
0.0
  0
MTEXT
  5
19CA
330
19CE
100
AcDbEntity
  8
0
  6
BYBLOCK
 62
     0
100
AcDbMText
 10
1.713899767203043
 20
-0.2175833018337125
 30
0.0
 40
0.075
 41
0.0
 71
     5
 72
     1
  1
\A1;\U+22050.2000\P[4] PL
  0
POINT
  5
19CB
330
19CE
100
AcDbEntity
  8
DEFPOINTS
  6
BYBLOCK
 62
     0
100
AcDbPoint
 10
0.8768755991093161
 20
0.5972895784935203
 30
0.0
  0
POINT
  5
19CC
330
19CE
100
AcDbEntity
  8
DEFPOINTS
  6
BYBLOCK
 62
     0
100
AcDbPoint
 10
0.9231244008906841
 20
0.4027104215064788
 30
0.0
  0
ENDBLK
  5
19CD
330
19CE
100
AcDbEntity
  8
DIMS
100
AcDbBlockEnd
  0
BLOCK
  5
19CF
330
19DA
100
AcDbEntity
  8
0
100
AcDbBlockBegin
  2
*D38
 70
     1
 10
0.0
 20
0.0
 30
0.0
  3
*D38
  1
*D38
  0
POINT
  5
19D0
330
19DA
100
AcDbEntity
  8
DEFPOINTS
  6
BYBLOCK
 62
     0
100
AcDbPoint
 10
3.6
 20
-0.0000000000000004
 30
0.0
  0
POINT
  5
19D1
330
19DA
100
AcDbEntity
  8
DEFPOINTS
  6
BYBLOCK
 62
     0
100
AcDbPoint
 10
2.79
 20
0.4999999999999996
 30
0.0
  0
LINE
  5
19D2
330
19DA
100
AcDbEntity
  8
0
  6
BYBLOCK
 62
     0
100
AcDbLine
 10
3.7
 20
-0.0000000000000004
 30
0.0
 11
3.894308662503986
 21
-0.0000000000000004
 31
0.0
  0
LINE
  5
19D3
330
19DA
100
AcDbEntity
  8
0
  6
BYBLOCK
 62
     0
100
AcDbLine
 10
2.89
 20
0.4999999999999996
 30
0.0
 11
3.894308662503986
 21
0.4999999999999996
 31
0.0
  0
LINE
  5
19D4
330
19DA
100
AcDbEntity
  8
0
  6
BYBLOCK
 62
     0
100
AcDbLine
 10
3.834308662503986
 20
-0.0000000000000004
 30
0.0
 11
3.834308662503986
 21
0.1596378269617701
 31
0.0
  0
SOLID
  5
19D5
330
19DA
100
AcDbEntity
  8
0
  6
BYBLOCK
 62
     0
100
AcDbTrace
 10
3.834308662503986
 20
-0.0000000000000004
 30
0.0
 11
3.850975329170656
 21
0.0999999999999996
 31
0.0
 12
3.817641995837316
 22
0.0999999999999996
 32
0.0
 13
3.817641995837316
 23
0.0999999999999996
 33
0.0
  0
LINE
  5
19D6
330
19DA
100
AcDbEntity
  8
0
  6
BYBLOCK
 62
     0
100
AcDbLine
 10
3.834308662503986
 20
0.4999999999999996
 30
0.0
 11
3.834308662503986
 21
0.3403621730382289
 31
0.0
  0
SOLID
  5
19D7
330
19DA
100
AcDbEntity
  8
0
  6
BYBLOCK
 62
     0
100
AcDbTrace
 10
3.834308662503986
 20
0.4999999999999996
 30
0.0
 11
3.850975329170656
 21
0.3999999999999996
 31
0.0
 12
3.817641995837316
 22
0.3999999999999996
 32
0.0
 13
3.817641995837316
 23
0.3999999999999996
 33
0.0
  0
MTEXT
  5
19D8
330
19DA
100
AcDbEntity
  8
0
  6
BYBLOCK
 62
     0
100
AcDbMText
 10
3.834308662503986
 20
0.2499999999999995
 30
0.0
 40
0.075
 41
0.0
 71
     5
 72
     1
  1
\A1;0.500
  0
ENDBLK
  5
19D9
330
19DA
100
AcDbEntity
  8
DIMS
100
AcDbBlockEnd
  0
BLOCK
  5
19DB
330
19E6
100
AcDbEntity
  8
0
100
AcDbBlockBegin
  2
*D39
 70
     1
 10
0.0
 20
0.0
 30
0.0
  3
*D39
  1
*D39
  0
POINT
  5
19DC
330
19E6
100
AcDbEntity
  8
DEFPOINTS
  6
BYBLOCK
 62
     0
100
AcDbPoint
 10
0.0
 20
0.0
 30
0.0
  0
POINT
  5
19DD
330
19E6
100
AcDbEntity
  8
DEFPOINTS
  6
BYBLOCK
 62
     0
100
AcDbPoint
 10
0.3787000000000001
 20
0.5889999999999996
 30
0.0
  0
LINE
  5
19DE
330
19E6
100
AcDbEntity
  8
0
  6
BYBLOCK
 62
     0
100
AcDbLine
 10
-0.1
 20
0.0
 30
0.0
 11
-0.6667653748768709
 21
0.0
 31
0.0
  0
LINE
  5
19DF
330
19E6
100
AcDbEntity
  8
0
  6
BYBLOCK
 62
     0
100
AcDbLine
 10
0.2787000000000001
 20
0.5889999999999996
 30
0.0
 11
-0.6667653748768709
 21
0.5889999999999996
 31
0.0
  0
LINE
  5
19E0
330
19E6
100
AcDbEntity
  8
0
  6
BYBLOCK
 62
     0
100
AcDbLine
 10
-0.6067653748768709
 20
0.0
 30
0.0
 11
-0.6067653748768709
 21
0.2041378269617705
 31
0.0
  0
SOLID
  5
19E1
330
19E6
100
AcDbEntity
  8
0
  6
BYBLOCK
 62
     0
100
AcDbTrace
 10
-0.6067653748768709
 20
0.0
 30
0.0
 11
-0.5900987082102008
 21
0.1
 31
0.0
 12
-0.6234320415435409
 22
0.1
 32
0.0
 13
-0.6234320415435409
 23
0.1
 33
0.0
  0
LINE
  5
19E2
330
19E6
100
AcDbEntity
  8
0
  6
BYBLOCK
 62
     0
100
AcDbLine
 10
-0.6067653748768709
 20
0.5889999999999996
 30
0.0
 11
-0.6067653748768709
 21
0.3848621730382292
 31
0.0
  0
SOLID
  5
19E3
330
19E6
100
AcDbEntity
  8
0
  6
BYBLOCK
 62
     0
100
AcDbTrace
 10
-0.6067653748768709
 20
0.5889999999999996
 30
0.0
 11
-0.5900987082102008
 21
0.4889999999999997
 31
0.0
 12
-0.6234320415435409
 22
0.4889999999999997
 32
0.0
 13
-0.6234320415435409
 23
0.4889999999999997
 33
0.0
  0
MTEXT
  5
19E4
330
19E6
100
AcDbEntity
  8
0
  6
BYBLOCK
 62
     0
100
AcDbMText
 10
-0.6067653748768709
 20
0.2944999999999998
 30
0.0
 40
0.075
 41
0.0
 71
     5
 72
     1
  1
\A1;0.589
  0
ENDBLK
  5
19E5
330
19E6
100
AcDbEntity
  8
DIMS
100
AcDbBlockEnd
  0
BLOCK
  5
19E7
330
19F1
100
AcDbEntity
  8
0
100
AcDbBlockBegin
  2
*D40
 70
     1
 10
0.0
 20
0.0
 30
0.0
  3
*D40
  1
*D40
  0
POINT
  5
19E8
330
19F1
100
AcDbEntity
  8
DEFPOINTS
  6
BYBLOCK
 62
     0
100
AcDbPoint
 10
0.3787000000000001
 20
0.5889999999999996
 30
0.0
  0
POINT
  5
19E9
330
19F1
100
AcDbEntity
  8
DEFPOINTS
  6
BYBLOCK
 62
     0
100
AcDbPoint
 10
0.0
 20
-0.0000000000000004
 30
0.0
  0
LINE
  5
19EA
330
19F1
100
AcDbEntity
  8
0
  6
BYBLOCK
 62
     0
100
AcDbLine
 10
0.3787000000000001
 20
0.4889999999999997
 30
0.0
 11
0.3787000000000001
 21
-0.2177745097397715
 31
0.0
  0
LINE
  5
19EB
330
19F1
100
AcDbEntity
  8
0
  6
BYBLOCK
 62
     0
100
AcDbLine
 10
0.0
 20
-0.1000000000000004
 30
0.0
 11
0.0
 21
-0.2177745097397715
 31
0.0
  0
LINE
  5
19EC
330
19F1
100
AcDbEntity
  8
0
  6
BYBLOCK
 62
     0
100
AcDbLine
 10
0.3787000000000001
 20
-0.1577745097397715
 30
0.0
 11
0.0
 21
-0.1577745097397715
 31
0.0
  0
SOLID
  5
19ED
330
19F1
100
AcDbEntity
  8
0
  6
BYBLOCK
 62
     0
100
AcDbTrace
 10
0.3787000000000001
 20
-0.1577745097397715
 30
0.0
 11
0.2787000000000001
 21
-0.1411078430731014
 31
0.0
 12
0.2787000000000001
 22
-0.1744411764064415
 32
0.0
 13
0.2787000000000001
 23
-0.1744411764064415
 33
0.0
  0
SOLID
  5
19EE
330
19F1
100
AcDbEntity
  8
0
  6
BYBLOCK
 62
     0
100
AcDbTrace
 10
0.0
 20
-0.1577745097397715
 30
0.0
 11
0.1
 21
-0.1411078430731014
 31
0.0
 12
0.1
 22
-0.1744411764064415
 32
0.0
 13
0.1
 23
-0.1744411764064415
 33
0.0
  0
MTEXT
  5
19EF
330
19F1
100
AcDbEntity
  8
0
  6
BYBLOCK
 62
     0
100
AcDbMText
 10
-0.1862557301730239
 20
-0.1597595406035871
 30
0.0
 40
0.075
 41
0.0
 71
     5
 72
     1
  1
\A1;0.379
  0
ENDBLK
  5
19F0
330
19F1
100
AcDbEntity
  8
DIMS
100
AcDbBlockEnd
  0
BLOCK
  5
1AB3
330
1AB2
100
AcDbEntity
  8
0
100
AcDbBlockBegin
  2
*D42
 70
     1
 10
0.0
 20
0.0
 30
0.0
  3
*D42
  1
*D42
  0
LINE
  5
1AB5
330
1AB2
100
AcDbEntity
  8
DIMS
 62
     0
100
AcDbLine
 10
-0.1
 20
0.0
 30
0.0
 11
-0.6740823538489451
 21
0.0
 31
0.0
  0
LINE
  5
1AB6
330
1AB2
100
AcDbEntity
  8
DIMS
 62
     0
100
AcDbLine
 10
0.2879999929000002
 20
0.5910000357
 30
0.0
 11
-0.6740823538489451
 21
0.5910000357000001
 31
0.0
  0
LINE
  5
1AB7
330
1AB2
100
AcDbEntity
  8
DIMS
 62
     0
100
AcDbLine
 10
-0.614082353848945
 20
0.1
 30
0.0
 11
-0.614082353848945
 21
0.2572125178500001
 31
0.0
  0
LINE
  5
1AB8
330
1AB2
100
AcDbEntity
  8
DIMS
 62
     0
100
AcDbLine
 10
-0.614082353848945
 20
0.4910000357000002
 30
0.0
 11
-0.614082353848945
 21
0.33378751785
 31
0.0
  0
SOLID
  5
1AB9
330
1AB2
100
AcDbEntity
  8
DIMS
 62
     0
100
AcDbTrace
 10
-0.6307490205156118
 20
0.1
 30
0.0
 11
-0.5974156871822783
 21
0.1
 31
0.0
 12
-0.614082353848945
 22
0.0
 32
0.0
 13
-0.614082353848945
 23
0.0
 33
0.0
  0
SOLID
  5
1ABA
330
1AB2
100
AcDbEntity
  8
DIMS
 62
     0
100
AcDbTrace
 10
-0.5974156871822783
 20
0.4910000357000002
 30
0.0
 11
-0.6307490205156118
 21
0.4910000357000002
 31
0.0
 12
-0.614082353848945
 22
0.5910000357000001
 32
0.0
 13
-0.614082353848945
 23
0.5910000357000001
 33
0.0
  0
MTEXT
  5
1ABB
330
1AB2
100
AcDbEntity
  8
DIMS
 62
     0
100
AcDbMText
 10
-0.614082353848945
 20
0.2955000178500001
 30
0.0
 40
0.075
 41
0.0
 71
     5
 72
     1
  1
\A1;0.591
  0
POINT
  5
1ABC
330
1AB2
100
AcDbEntity
  8
DEFPOINTS
 62
     0
100
AcDbPoint
 10
0.0
 20
0.0
 30
0.0
  0
POINT
  5
1ABD
330
1AB2
100
AcDbEntity
  8
DEFPOINTS
 62
     0
100
AcDbPoint
 10
0.3879999929000002
 20
0.5910000357
 30
0.0
  0
POINT
  5
1ABE
330
1AB2
100
AcDbEntity
  8
DEFPOINTS
 62
     0
100
AcDbPoint
 10
-0.614082353848945
 20
0.5910000357000001
 30
0.0
  0
ENDBLK
  5
1AB4
330
1AB2
100
AcDbEntity
  8
0
100
AcDbBlockEnd
  0
BLOCK
  5
1AC3
330
1AC2
100
AcDbEntity
  8
0
100
AcDbBlockBegin
  2
*D43
 70
     1
 10
0.0
 20
0.0
 30
0.0
  3
*D43
  1
*D43
  0
LINE
  5
1AC5
330
1AC2
100
AcDbEntity
  8
DIMS
 62
     0
100
AcDbLine
 10
0.0
 20
-0.1
 30
0.0
 11
0.0
 21
-0.2472774922682121
 31
0.0
  0
LINE
  5
1AC6
330
1AC2
100
AcDbEntity
  8
DIMS
 62
     0
100
AcDbLine
 10
0.3879999929000002
 20
0.4910000357000001
 30
0.0
 11
0.3879999929000002
 21
-0.2472774922682121
 31
0.0
  0
LINE
  5
1AC7
330
1AC2
100
AcDbEntity
  8
DIMS
 62
     0
100
AcDbLine
 10
-0.1
 20
-0.1872774922682121
 30
0.0
 11
-0.2
 21
-0.1872774922682121
 31
0.0
  0
LINE
  5
1AC8
330
1AC2
100
AcDbEntity
  8
DIMS
 62
     0
100
AcDbLine
 10
0.4879999929000002
 20
-0.1872774922682121
 30
0.0
 11
0.5879999929000002
 21
-0.1872774922682121
 31
0.0
  0
SOLID
  5
1AC9
330
1AC2
100
AcDbEntity
  8
DIMS
 62
     0
100
AcDbTrace
 10
-0.1
 20
-0.2039441589348788
 30
0.0
 11
-0.1
 21
-0.1706108256015454
 31
0.0
 12
0.0
 22
-0.1872774922682121
 32
0.0
 13
0.0
 23
-0.1872774922682121
 33
0.0
  0
SOLID
  5
1ACA
330
1AC2
100
AcDbEntity
  8
DIMS
 62
     0
100
AcDbTrace
 10
0.4879999929000002
 20
-0.1706108256015454
 30
0.0
 11
0.4879999929000002
 21
-0.2039441589348788
 31
0.0
 12
0.3879999929000002
 22
-0.1872774922682121
 32
0.0
 13
0.3879999929000002
 23
-0.1872774922682121
 33
0.0
  0
MTEXT
  5
1ACB
330
1AC2
100
AcDbEntity
  8
DIMS
 62
     0
100
AcDbMText
 10
0.1939999964500001
 20
-0.1872774922682121
 30
0.0
 40
0.075
 41
0.0
 71
     5
 72
     1
  1
\A1;0.388
  0
POINT
  5
1ACC
330
1AC2
100
AcDbEntity
  8
DEFPOINTS
 62
     0
100
AcDbPoint
 10
0.0
 20
0.0
 30
0.0
  0
POINT
  5
1ACD
330
1AC2
100
AcDbEntity
  8
DEFPOINTS
 62
     0
100
AcDbPoint
 10
0.3879999929000002
 20
0.5910000357
 30
0.0
  0
POINT
  5
1ACE
330
1AC2
100
AcDbEntity
  8
DEFPOINTS
 62
     0
100
AcDbPoint
 10
0.3879999929000002
 20
-0.1872774922682121
 30
0.0
  0
ENDBLK
  5
1AC4
330
1AC2
100
AcDbEntity
  8
0
100
AcDbBlockEnd
  0
ENDSEC
  0
SECTION
  2
ENTITIES
  0
LINE
  5
20
102
{ACAD_REACTORS
102
}
330
18
100
AcDbEntity
  8
0
100
AcDbLine
 10
0.0
 20
0.0
 30
0.0
 11
0.0
 21
2.6
 31
0.0
  0
LINE
  5
21
330
18
100
AcDbEntity
  8
0
100
AcDbLine
 10
0.0
 20
2.6
 30
0.0
 11
3.6
 21
2.6
 31
0.0
  0
LINE
  5
22
330
18
100
AcDbEntity
  8
0
100
AcDbLine
 10
3.6
 20
2.6
 30
0.0
 11
3.6
 21
-0.0000000000000004
 31
0.0
  0
LINE
  5
23
330
18
100
AcDbEntity
  8
0
100
AcDbLine
 10
3.6
 20
-0.0000000000000004
 30
0.0
 11
0.0
 21
-0.0000000000000004
 31
0.0
  0
CIRCLE
  5
29
330
18
100
AcDbEntity
  8
0
100
AcDbCircle
 10
0.8999999999999999
 20
0.4999999999999996
 30
0.0
 40
0.1
  0
CIRCLE
  5
2A
330
18
100
AcDbEntity
  8
0
100
AcDbCircle
 10
0.8999999999999999
 20
2.1
 30
0.0
 40
0.1
  0
CIRCLE
  5
2B
330
18
100
AcDbEntity
  8
0
100
AcDbCircle
 10
2.7
 20
0.4999999999999996
 30
0.0
 40
0.1
  0
CIRCLE
  5
2C
330
18
100
AcDbEntity
  8
0
100
AcDbCircle
 10
2.7
 20
2.1
 30
0.0
 40
0.1
  0
LINE
  5
32
330
18
100
AcDbEntity
  8
0
100
AcDbLine
 10
0.0
 20
3.738462858323583
 30
0.0
 11
3.6
 21
3.738462858323583
 31
0.0
  0
LINE
  5
33
330
18
100
AcDbEntity
  8
0
100
AcDbLine
 10
3.6
 20
3.738462858323583
 30
0.0
 11
3.6
 21
3.803462858323583
 31
0.0
  0
LINE
  5
34
330
18
100
AcDbEntity
  8
0
100
AcDbLine
 10
3.6
 20
3.803462858323583
 30
0.0
 11
0.0
 21
3.803462858323583
 31
0.0
  0
LINE
  5
35
330
18
100
AcDbEntity
  8
0
100
AcDbLine
 10
0.0
 20
3.803462858323583
 30
0.0
 11
0.0
 21
3.738462858323583
 31
0.0
  0
CIRCLE
  5
38
330
18
100
AcDbEntity
  8
0
100
AcDbCircle
 10
0.8000000000000003
 20
0.0999999999999996
 30
0.0
 40
0.02559
  0
CIRCLE
  5
4A
330
18
100
AcDbEntity
  8
0
100
AcDbCircle
 10
1.7
 20
0.0999999999999995
 30
0.0
 40
0.02559
  0
CIRCLE
  5
4F
330
18
100
AcDbEntity
  8
0
100
AcDbCircle
 10
2.6
 20
0.0999999999999995
 30
0.0
 40
0.02559
  0
CIRCLE
  5
65
330
18
100
AcDbEntity
  8
0
100
AcDbCircle
 10
1.385
 20
2.5
 30
0.0
 40
0.02559
  0
CIRCLE
  5
6D
330
18
100
AcDbEntity
  8
0
100
AcDbCircle
 10
2.29
 20
2.5
 30
0.0
 40
0.02559
  0
CIRCLE
  5
6E
330
18
100
AcDbEntity
  8
0
100
AcDbCircle
 10
3.2
 20
2.5
 30
0.0
 40
0.02559
  0
CIRCLE
  5
7D
330
18
100
AcDbEntity
  8
0
100
AcDbCircle
 10
2.0
 20
0.59
 30
0.0
 40
0.02
  0
CIRCLE
  5
80
330
18
100
AcDbEntity
  8
0
100
AcDbCircle
 10
3.4
 20
1.65
 30
0.0
 40
0.02
  0
CIRCLE
  5
81
330
18
100
AcDbEntity
  8
0
100
AcDbCircle
 10
2.2
 20
2.1
 30
0.0
 40
0.02
  0
CIRCLE
  5
86
330
18
100
AcDbEntity
  8
0
100
AcDbCircle
 10
0.9968000000000002
 20
0.0999999999999996
 30
0.0
 40
0.02559
  0
CIRCLE
  5
87
330
18
100
AcDbEntity
  8
0
100
AcDbCircle
 10
1.1936
 20
0.0999999999999996
 30
0.0
 40
0.02559
  0
CIRCLE
  5
88
330
18
100
AcDbEntity
  8
0
100
AcDbCircle
 10
1.3904
 20
0.0999999999999996
 30
0.0
 40
0.02559
  0
CIRCLE
  5
8D
330
18
100
AcDbEntity
  8
0
100
AcDbCircle
 10
1.8986
 20
0.0999999999999995
 30
0.0
 40
0.02559
  0
CIRCLE
  5
8E
330
18
100
AcDbEntity
  8
0
100
AcDbCircle
 10
2.0972
 20
0.0999999999999995
 30
0.0
 40
0.02559
  0
CIRCLE
  5
8F
330
18
100
AcDbEntity
  8
0
100
AcDbCircle
 10
2.2958
 20
0.0999999999999995
 30
0.0
 40
0.02559
  0
CIRCLE
  5
90
330
18
100
AcDbEntity
  8
0
100
AcDbCircle
 10
2.7968
 20
0.0999999999999995
 30
0.0
 40
0.02559
  0
CIRCLE
  5
91
330
18
100
AcDbEntity
  8
0
100
AcDbCircle
 10
2.9936
 20
0.0999999999999995
 30
0.0
 40
0.02559
  0
CIRCLE
  5
92
330
18
100
AcDbEntity
  8
0
100
AcDbCircle
 10
3.1904
 20
0.0999999999999995
 30
0.0
 40
0.02559
  0
CIRCLE
  5
96
330
18
100
AcDbEntity
  8
0
100
AcDbCircle
 10
3.0032
 20
2.5
 30
0.0
 40
0.02559
  0
CIRCLE
  5
97
330
18
100
AcDbEntity
  8
0
100
AcDbCircle
 10
2.8064
 20
2.5
 30
0.0
 40
0.02559
  0
CIRCLE
  5
98
330
18
100
AcDbEntity
  8
0
100
AcDbCircle
 10
2.6096
 20
2.5
 30
0.0
 40
0.02559
  0
CIRCLE
  5
99
330
18
100
AcDbEntity
  8
0
100
AcDbCircle
 10
2.0932
 20
2.5
 30
0.0
 40
0.02559
  0
CIRCLE
  5
9A
330
18
100
AcDbEntity
  8
0
100
AcDbCircle
 10
1.8964
 20
2.5
 30
0.0
 40
0.02559
  0
CIRCLE
  5
9B
330
18
100
AcDbEntity
  8
0
100
AcDbCircle
 10
1.6996
 20
2.5
 30
0.0
 40
0.02559
  0
CIRCLE
  5
9C
330
18
100
AcDbEntity
  8
0
100
AcDbCircle
 10
1.1882
 20
2.5
 30
0.0
 40
0.02559
  0
CIRCLE
  5
9D
330
18
100
AcDbEntity
  8
0
100
AcDbCircle
 10
0.9914000000000003
 20
2.5
 30
0.0
 40
0.02559
  0
CIRCLE
  5
9E
330
18
100
AcDbEntity
  8
0
100
AcDbCircle
 10
0.7946000000000002
 20
2.5
 30
0.0
 40
0.02559
  0
LINE
  5
AD
330
18
100
AcDbEntity
  8
DIMS
100
AcDbLine
 10
0.8099999999999999
 20
0.4999999999999996
 30
0.0
 11
0.9899999999999999
 21
0.4999999999999996
 31
0.0
  0
LINE
  5
AE
330
18
100
AcDbEntity
  8
DIMS
100
AcDbLine
 10
0.8999999999999999
 20
0.4099999999999996
 30
0.0
 11
0.8999999999999999
 21
0.5899999999999995
 31
0.0
  0
LINE
  5
AF
330
18
100
AcDbEntity
  8
DIMS
100
AcDbLine
 10
2.61
 20
0.4999999999999996
 30
0.0
 11
2.79
 21
0.4999999999999996
 31
0.0
  0
LINE
  5
B0
330
18
100
AcDbEntity
  8
DIMS
100
AcDbLine
 10
2.7
 20
0.4099999999999996
 30
0.0
 11
2.7
 21
0.5899999999999995
 31
0.0
  0
LINE
  5
B1
330
18
100
AcDbEntity
  8
DIMS
100
AcDbLine
 10
2.61
 20
2.1
 30
0.0
 11
2.79
 21
2.1
 31
0.0
  0
LINE
  5
B2
330
18
100
AcDbEntity
  8
DIMS
100
AcDbLine
 10
2.7
 20
2.01
 30
0.0
 11
2.7
 21
2.19
 31
0.0
  0
LINE
  5
B3
330
18
100
AcDbEntity
  8
DIMS
100
AcDbLine
 10
0.8099999999999999
 20
2.1
 30
0.0
 11
0.9899999999999999
 21
2.1
 31
0.0
  0
LINE
  5
B4
330
18
100
AcDbEntity
  8
DIMS
100
AcDbLine
 10
0.8999999999999999
 20
2.01
 30
0.0
 11
0.8999999999999999
 21
2.19
 31
0.0
  0
DIMENSION
  5
143
330
18
100
AcDbEntity
  8
DIMS
100
AcDbDimension
  2
*D24
 10
0.8999999999999999
 20
-0.4
 30
0.0
 11
0.4407339041470557
 21
-0.4
 31
0.0
 70
   160
  1
<>
  3
DEF_STANDARD
100
AcDbAlignedDimension
 13
0.0
 23
-0.0000000000000004
 33
0.0
 14
0.8999999999999999
 24
0.4999999999999996
 34
0.0
100
AcDbRotatedDimension
  0
DIMENSION
  5
185
330
18
100
AcDbEntity
  8
DIMS
100
AcDbDimension
  2
*D25
 10
-0.2872616692180756
 20
0.4999999999999996
 30
0.0
 11
-0.2872616692180756
 21
0.2494111474684537
 31
0.0
 70
   160
  1
<>
  3
STANDARD
100
AcDbAlignedDimension
 13
0.0
 23
-0.0000000000000004
 33
0.0
 14
0.8999999999999999
 24
0.4999999999999996
 34
0.0
 50
90.0
100
AcDbRotatedDimension
1001
ACAD
1000
DSTYLE
1002
{
1070
    41
1040
0.1
1070
    42
1040
0.1
1070
    44
1040
0.0625
1070
   147
1040
0.0
1070
   271
1070
     3
1002
}
  0
DIMENSION
  5
1DC
330
18
100
AcDbEntity
  8
DIMS
100
AcDbDimension
  2
*D26
 10
-0.8533734786467626
 20
2.1
 30
0.0
 11
-0.8533734786467626
 21
1.02834071749351
 31
0.0
 70
   160
  1
<>
  3
DEF_STANDARD
100
AcDbAlignedDimension
 13
0.0
 23
-0.0000000000000004
 33
0.0
 14
0.8999999999999999
 24
2.1
 34
0.0
 50
90.0
100
AcDbRotatedDimension
  0
DIMENSION
  5
1EA
330
18
100
AcDbEntity
  8
DIMS
100
AcDbDimension
  2
*D27
 10
3.6
 20
-1.0
 30
0.0
 11
1.806643690922591
 21
-1.0
 31
0.0
 70
   160
  1
<>
  3
DEF_STANDARD
100
AcDbAlignedDimension
 13
0.0
 23
-0.0000000000000004
 33
0.0
 14
3.6
 24
-0.0000000000000004
 34
0.0
100
AcDbRotatedDimension
  0
DIMENSION
  5
1F8
330
18
100
AcDbEntity
  8
DIMS
100
AcDbDimension
  2
*D28
 10
-1.115718018466687
 20
2.6
 30
0.0
 11
-1.115718018466687
 21
1.280565525642265
 31
0.0
 70
   160
  1
<>
  3
DEF_STANDARD
100
AcDbAlignedDimension
 13
0.0
 23
-0.0000000000000004
 33
0.0
 14
0.0
 24
2.6
 34
0.0
 50
90.0
100
AcDbRotatedDimension
  0
DIMENSION
  5
206
330
18
100
AcDbEntity
  8
DIMS
100
AcDbDimension
  2
*D29
 10
2.0
 20
-0.6000000000000001
 30
0.0
 11
1.012337438453716
 21
-0.6000000000000001
 31
0.0
 70
   160
  1
<>
  3
DEF_STANDARD
100
AcDbAlignedDimension
 13
0.0
 23
-0.0000000000000004
 33
0.0
 14
2.0
 24
0.59
 34
0.0
100
AcDbRotatedDimension
  0
DIMENSION
  5
215
330
18
100
AcDbEntity
  8
DIMS
100
AcDbDimension
  2
*D30
 10
4.182138960480614
 20
0.59
 30
0.0
 11
4.182138960480614
 21
0.2717070259208728
 31
0.0
 70
   160
  1
<>
  3
DEF_STANDARD
100
AcDbAlignedDimension
 13
3.6
 23
-0.0000000000000004
 33
0.0
 14
2.0
 24
0.59
 34
0.0
 50
90.0
100
AcDbRotatedDimension
  0
DIMENSION
  5
23B
330
18
100
AcDbEntity
  8
DIMS
100
AcDbDimension
  2
*D31
 10
4.404841636270888
 20
1.65
 30
0.0
 11
4.404841636270888
 21
0.8249999999999997
 31
0.0
 70
   160
  1
<>
  3
DEF_STANDARD
100
AcDbAlignedDimension
 13
3.6
 23
-0.0000000000000004
 33
0.0
 14
3.4
 24
1.65
 34
0.0
 50
90.0
100
AcDbRotatedDimension
  0
DIMENSION
  5
249
330
18
100
AcDbEntity
  8
DIMS
100
AcDbDimension
  2
*D32
 10
4.664661441235069
 20
2.1
 30
0.0
 11
4.664661441235069
 21
1.05
 31
0.0
 70
   160
  1
<>
  3
DEF_STANDARD
100
AcDbAlignedDimension
 13
3.6
 23
-0.0000000000000004
 33
0.0
 14
2.2
 24
2.1
 34
0.0
 50
90.0
100
AcDbRotatedDimension
  0
DIMENSION
  5
478
330
18
100
AcDbEntity
  8
DIMS
100
AcDbDimension
  2
*D33
 10
2.2
 20
2.792266425945524
 30
0.0
 11
1.1014185314542
 21
2.792266425945524
 31
0.0
 70
   160
  1
<>
  3
DEF_STANDARD
100
AcDbAlignedDimension
 13
0.0
 23
2.6
 33
0.0
 14
2.2
 24
2.1
 34
0.0
100
AcDbRotatedDimension
  0
DIMENSION
  5
486
330
18
100
AcDbEntity
  8
DIMS
100
AcDbDimension
  2
*D34
 10
3.4
 20
3.03401124100553
 30
0.0
 11
1.7
 21
3.03401124100553
 31
0.0
 70
   160
  1
<>
  3
DEF_STANDARD
100
AcDbAlignedDimension
 13
0.0
 23
2.6
 33
0.0
 14
3.4
 24
1.65
 34
0.0
100
AcDbRotatedDimension
  0
DIMENSION
  5
51B
330
18
100
AcDbEntity
  8
DIMS
100
AcDbDimension
  2
*D35
 10
-0.2591667562763647
 20
3.738462858323583
 30
0.0
 11
-0.7484424101999059
 21
3.538462858323583
 31
0.0
 70
    32
  3
STANDARD
100
AcDbAlignedDimension
 13
0.0
 23
3.803462858323583
 33
0.0
 14
0.0
 24
3.738462858323583
 34
0.0
 50
90.0
100
AcDbRotatedDimension
1001
ACAD
1000
DSTYLE
1002
{
1070
    42
1040
0.1
1070
    44
1040
0.0625
1070
   271
1070
     3
1070
    41
1040
0.1
1002
}
  0
LWPOLYLINE
  5
59E
330
18
100
AcDbEntity
  8
0
100
AcDbPolyline
 90
        4
 70
     1
 43
0.0
 10
0.7744100000000003
 20
0.1255899999999996
 10
0.7744100000000003
 20
0.0744099999999996
 10
0.8255900000000003
 20
0.0744099999999996
 10
0.8255900000000003
 20
0.1255899999999996
  0
LWPOLYLINE
  5
5A9
330
18
100
AcDbEntity
  8
0
100
AcDbPolyline
 90
        4
 70
     1
 43
0.0
 10
1.67441
 20
0.1255899999999995
 10
1.67441
 20
0.0744099999999996
 10
1.72559
 20
0.0744099999999996
 10
1.72559
 20
0.1255899999999995
  0
LWPOLYLINE
  5
5AA
330
18
100
AcDbEntity
  8
0
100
AcDbPolyline
 90
        4
 70
     1
 43
0.0
 10
2.57441
 20
0.1255899999999995
 10
2.57441
 20
0.0744099999999996
 10
2.62559
 20
0.0744099999999996
 10
2.62559
 20
0.1255899999999995
  0
LWPOLYLINE
  5
5AB
330
18
100
AcDbEntity
  8
0
100
AcDbPolyline
 90
        4
 70
     1
 43
0.0
 10
1.35941
 20
2.525589999999999
 10
1.35941
 20
2.474409999999999
 10
1.41059
 20
2.474409999999999
 10
1.41059
 20
2.525589999999999
  0
LWPOLYLINE
  5
5AC
330
18
100
AcDbEntity
  8
0
100
AcDbPolyline
 90
        4
 70
     1
 43
0.0
 10
2.264410000000001
 20
2.525589999999999
 10
2.264410000000001
 20
2.474409999999999
 10
2.31559
 20
2.474409999999999
 10
2.31559
 20
2.525589999999999
  0
LWPOLYLINE
  5
5AD
330
18
100
AcDbEntity
  8
0
100
AcDbPolyline
 90
        4
 70
     1
 43
0.0
 10
3.174410000000001
 20
2.525589999999999
 10
3.174410000000001
 20
2.474409999999999
 10
3.22559
 20
2.474409999999999
 10
3.22559
 20
2.525589999999999
  0
CIRCLE
  5
5B0
330
18
100
AcDbEntity
  8
0
100
AcDbCircle
 10
0.3879999929000002
 20
0.5910000357
 30
0.0
 40
0.02
  0
LWPOLYLINE
  5
5B3
330
18
100
AcDbEntity
  8
0
100
AcDbPolyline
 90
        4
 70
     1
 43
0.0
 10
0.3679999929000002
 20
0.6110000357
 10
0.3679999929000002
 20
0.5710000357
 10
0.4079999929000002
 20
0.5710000357
 10
0.4079999929000002
 20
0.6110000357
  0
LWPOLYLINE
  5
5D9
330
18
100
AcDbEntity
  8
0
100
AcDbPolyline
 90
        4
 70
     1
 43
0.0
 10
1.98
 20
0.61
 10
1.98
 20
0.57
 10
2.02
 20
0.57
 10
2.02
 20
0.61
  0
CIRCLE
  5
5DA
330
18
100
AcDbEntity
  8
0
100
AcDbCircle
 10
2.0
 20
0.49
 30
0.0
 40
0.02
  0
CIRCLE
  5
5DB
330
18
100
AcDbEntity
  8
0
100
AcDbCircle
 10
1.9
 20
0.59
 30
0.0
 40
0.02
  0
CIRCLE
  5
5DC
330
18
100
AcDbEntity
  8
0
100
AcDbCircle
 10
1.9
 20
0.49
 30
0.0
 40
0.02
  0
CIRCLE
  5
5DD
330
18
100
AcDbEntity
  8
0
100
AcDbCircle
 10
1.8
 20
0.59
 30
0.0
 40
0.02
  0
CIRCLE
  5
5DE
330
18
100
AcDbEntity
  8
0
100
AcDbCircle
 10
1.8
 20
0.49
 30
0.0
 40
0.02
  0
CIRCLE
  5
5DF
330
18
100
AcDbEntity
  8
0
100
AcDbCircle
 10
1.7
 20
0.59
 30
0.0
 40
0.02
  0
CIRCLE
  5
5E0
330
18
100
AcDbEntity
  8
0
100
AcDbCircle
 10
1.7
 20
0.49
 30
0.0
 40
0.02
  0
CIRCLE
  5
5E1
330
18
100
AcDbEntity
  8
0
100
AcDbCircle
 10
1.6
 20
0.59
 30
0.0
 40
0.02
  0
CIRCLE
  5
5E2
330
18
100
AcDbEntity
  8
0
100
AcDbCircle
 10
1.6
 20
0.49
 30
0.0
 40
0.02
  0
LWPOLYLINE
  5
5E3
330
18
100
AcDbEntity
  8
0
100
AcDbPolyline
 90
        4
 70
     1
 43
0.0
 10
3.38
 20
1.67
 10
3.38
 20
1.63
 10
3.42
 20
1.63
 10
3.42
 20
1.67
  0
CIRCLE
  5
5E4
330
18
100
AcDbEntity
  8
0
100
AcDbCircle
 10
3.4
 20
1.55
 30
0.0
 40
0.02
  0
CIRCLE
  5
5E5
330
18
100
AcDbEntity
  8
0
100
AcDbCircle
 10
3.4
 20
1.45
 30
0.0
 40
0.02
  0
CIRCLE
  5
5E6
330
18
100
AcDbEntity
  8
0
100
AcDbCircle
 10
3.4
 20
1.35
 30
0.0
 40
0.02
  0
CIRCLE
  5
5E7
330
18
100
AcDbEntity
  8
0
100
AcDbCircle
 10
3.4
 20
1.25
 30
0.0
 40
0.02
  0
CIRCLE
  5
5E8
330
18
100
AcDbEntity
  8
0
100
AcDbCircle
 10
3.4
 20
1.15
 30
0.0
 40
0.02
  0
CIRCLE
  5
5E9
330
18
100
AcDbEntity
  8
0
100
AcDbCircle
 10
3.4
 20
1.05
 30
0.0
 40
0.02
  0
CIRCLE
  5
5EA
330
18
100
AcDbEntity
  8
0
100
AcDbCircle
 10
3.4
 20
0.95
 30
0.0
 40
0.02
  0
CIRCLE
  5
5EB
330
18
100
AcDbEntity
  8
0
100
AcDbCircle
 10
3.5
 20
1.65
 30
0.0
 40
0.02
  0
CIRCLE
  5
5EC
330
18
100
AcDbEntity
  8
0
100
AcDbCircle
 10
3.5
 20
1.55
 30
0.0
 40
0.02
  0
CIRCLE
  5
5ED
330
18
100
AcDbEntity
  8
0
100
AcDbCircle
 10
3.5
 20
1.45
 30
0.0
 40
0.02
  0
CIRCLE
  5
5EE
330
18
100
AcDbEntity
  8
0
100
AcDbCircle
 10
3.5
 20
1.35
 30
0.0
 40
0.02
  0
CIRCLE
  5
5EF
330
18
100
AcDbEntity
  8
0
100
AcDbCircle
 10
3.5
 20
1.25
 30
0.0
 40
0.02
  0
CIRCLE
  5
5F0
330
18
100
AcDbEntity
  8
0
100
AcDbCircle
 10
3.5
 20
1.15
 30
0.0
 40
0.02
  0
CIRCLE
  5
5F1
330
18
100
AcDbEntity
  8
0
100
AcDbCircle
 10
3.5
 20
1.05
 30
0.0
 40
0.02
  0
CIRCLE
  5
5F2
330
18
100
AcDbEntity
  8
0
100
AcDbCircle
 10
3.5
 20
0.95
 30
0.0
 40
0.02
  0
LWPOLYLINE
  5
5F3
330
18
100
AcDbEntity
  8
0
100
AcDbPolyline
 90
        4
 70
     1
 43
0.0
 10
2.18
 20
2.12
 10
2.18
 20
2.08
 10
2.22
 20
2.08
 10
2.22
 20
2.12
  0
CIRCLE
  5
5F4
330
18
100
AcDbEntity
  8
0
100
AcDbCircle
 10
2.2
 20
2.0
 30
0.0
 40
0.02
  0
CIRCLE
  5
5F5
330
18
100
AcDbEntity
  8
0
100
AcDbCircle
 10
2.1
 20
2.1
 30
0.0
 40
0.02
  0
CIRCLE
  5
5F6
330
18
100
AcDbEntity
  8
0
100
AcDbCircle
 10
2.1
 20
2.0
 30
0.0
 40
0.02
  0
CIRCLE
  5
5F7
330
18
100
AcDbEntity
  8
0
100
AcDbCircle
 10
2.0
 20
2.1
 30
0.0
 40
0.02
  0
CIRCLE
  5
5F8
330
18
100
AcDbEntity
  8
0
100
AcDbCircle
 10
2.0
 20
2.0
 30
0.0
 40
0.02
  0
CIRCLE
  5
5F9
330
18
100
AcDbEntity
  8
0
100
AcDbCircle
 10
1.9
 20
2.1
 30
0.0
 40
0.02
  0
CIRCLE
  5
5FA
330
18
100
AcDbEntity
  8
0
100
AcDbCircle
 10
1.9
 20
2.0
 30
0.0
 40
0.02
  0
CIRCLE
  5
5FB
330
18
100
AcDbEntity
  8
0
100
AcDbCircle
 10
1.8
 20
2.1
 30
0.0
 40
0.02
  0
CIRCLE
  5
5FC
330
18
100
AcDbEntity
  8
0
100
AcDbCircle
 10
1.8
 20
2.0
 30
0.0
 40
0.02
  0
LINE
  5
600
330
18
100
AcDbEntity
  8
DIMS
100
AcDbLine
 10
2.11
 20
2.1
 30
0.0
 11
2.29
 21
2.1
 31
0.0
  0
LINE
  5
601
330
18
100
AcDbEntity
  8
DIMS
100
AcDbLine
 10
2.2
 20
2.01
 30
0.0
 11
2.2
 21
2.19
 31
0.0
  0
LINE
  5
602
330
18
100
AcDbEntity
  8
DIMS
100
AcDbLine
 10
3.31
 20
1.65
 30
0.0
 11
3.49
 21
1.65
 31
0.0
  0
LINE
  5
603
330
18
100
AcDbEntity
  8
DIMS
100
AcDbLine
 10
3.4
 20
1.56
 30
0.0
 11
3.4
 21
1.74
 31
0.0
  0
LINE
  5
604
330
18
100
AcDbEntity
  8
DIMS
100
AcDbLine
 10
1.91
 20
0.5900000000000001
 30
0.0
 11
2.09
 21
0.5900000000000001
 31
0.0
  0
LINE
  5
605
330
18
100
AcDbEntity
  8
DIMS
100
AcDbLine
 10
2.0
 20
0.5000000000000001
 30
0.0
 11
2.0
 21
0.68
 31
0.0
  0
DIMENSION
  5
68D
330
18
100
AcDbEntity
  8
DIMS
100
AcDbDimension
  2
*D36
 10
2.7
 20
-0.8
 30
0.0
 11
1.368661753099673
 21
-0.8
 31
0.0
 70
   160
  1
<>
  3
DEF_STANDARD
100
AcDbAlignedDimension
 13
0.0
 23
-0.0000000000000004
 33
0.0
 14
2.7
 24
0.4999999999999996
 34
0.0
100
AcDbRotatedDimension
  0
MTEXT
  5
6F6
330
18
100
AcDbEntity
  8
DIMS
100
AcDbMText
 10
0.9900539564728797
 20
1.025310379284802
 30
0.0
 40
0.0749999999999997
 41
0.0
 71
     6
 72
     1
  1
\A1;1.
  0
LWPOLYLINE
  5
6F8
330
18
100
AcDbEntity
  8
DIMS
100
AcDbPolyline
 90
        3
 70
     1
 43
0.0
 10
0.9501003897126983
 20
1.212808886461329
 10
0.7768953089558106
 20
0.9128088864613292
 10
1.123305470469586
 20
0.9128088864613292
  0
LEADER
  5
700
330
18
100
AcDbEntity
  8
DIMS
100
AcDbLeader
  3
STANDARD
 73
     0
 75
     1
 76
     3
 10
0.4079999929000002
 20
0.6110000357
 30
0.0
 10
0.8768953089558106
 20
0.9128088864613292
 30
0.0
 10
0.7768953089558106
 20
0.9128088864613292
 30
0.0
 77
   256
340
701
213
1.008732661267417
223
-0.4926697481770539
233
0.0
1001
ACAD
1000
DSTYLE
1002
{
1070
     5
1000

1070
    42
1040
0.1
1070
    44
1040
0.0625
1070
   271
1070
     3
1070
    41
1040
0.1
1002
}
  0
MTEXT
  5
701
102
{ACAD_REACTORS
330
700
102
}
330
18
100
AcDbEntity
  8
DIMS
100
AcDbMText
 10
-0.2865434117811085
 20
1.523046127756368
 30
0.0
 40
0.075
 41
0.0
 71
     6
 72
     1
  1
\A1;
  0
MTEXT
  5
702
330
18
100
AcDbEntity
  8
DIMS
100
AcDbMText
 10
5.046370344236973
 20
2.472460711597686
 30
0.0
 40
0.075
 41
3.6685
 71
     1
 72
     5
  1
NOTES:\P1.  USB, PIN 1\P2.  2X5 OEM HEADER, 0.1 PITCH, PIN 1\P3.  2X8 OEM HEADER, 0.1 PITCH, PIN 1
  0
MTEXT
  5
705
330
18
100
AcDbEntity
  8
DIMS
100
AcDbMText
 10
-0.3865434117811085
 20
1.523046127756368
 30
0.0
 40
0.075
 41
0.0
 71
     6
 72
     1
  1
\A1;
  0
MTEXT
  5
707
330
18
100
AcDbEntity
  8
DIMS
100
AcDbMText
 10
-0.3865434117811085
 20
1.523046127756368
 30
0.0
 40
0.075
 41
0.0
 71
     6
 72
     1
  1
\A1;
  0
MTEXT
  5
709
330
18
100
AcDbEntity
  8
DIMS
100
AcDbMText
 10
-0.3865434117811085
 20
1.523046127756368
 30
0.0
 40
0.075
 41
0.0
 71
     6
 72
     1
  1
\A1;
  0
MTEXT
  5
70B
330
18
100
AcDbEntity
  8
DIMS
100
AcDbMText
 10
-0.3865434117811085
 20
1.523046127756368
 30
0.0
 40
0.075
 41
0.0
 71
     6
 72
     1
  1
\A1;
  0
MTEXT
  5
70F
330
18
100
AcDbEntity
  8
DIMS
100
AcDbMText
 10
-0.3865434117811085
 20
1.523046127756368
 30
0.0
 40
0.075
 41
0.0
 71
     6
 72
     1
  1
\A1;
  0
LEADER
  5
710
330
18
100
AcDbEntity
  8
DIMS
100
AcDbLeader
  3
STANDARD
 73
     0
 75
     1
 40
0.0753
 41
0.07515
 76
     3
 10
2.2
 20
2.08
 30
0.0
 10
1.492568105357992
 20
1.457245107862812
 30
0.0
 10
1.392568105357992
 20
1.457245107862812
 30
0.0
 77
   256
340
711
1001
ACAD
1000
DSTYLE
1002
{
1070
     5
1000

1070
    42
1040
0.1
1070
    44
1040
0.0625
1070
   271
1070
     3
1070
    41
1040
0.1
1002
}
  0
MTEXT
  5
711
102
{ACAD_REACTORS
330
710
102
}
330
18
100
AcDbEntity
  8
DIMS
100
AcDbMText
 10
1.302568105357992
 20
1.457245107862812
 30
0.0
 40
0.075
 41
0.0
 71
     6
 72
     1
  1
2.
  0
LEADER
  5
713
330
18
100
AcDbEntity
  8
DIMS
100
AcDbLeader
  3
STANDARD
 73
     0
 75
     1
 76
     3
 10
2.0
 20
0.61
 30
0.0
 10
1.492568105357992
 20
1.457245107862812
 30
0.0
 10
1.392568105357992
 20
1.457245107862812
 30
0.0
 77
   256
340
714
213
-0.2407218450139652
223
-0.03564894998693546
233
0.0
1001
ACAD
1000
DSTYLE
1002
{
1070
     5
1000

1070
    42
1040
0.1
1070
    44
1040
0.0625
1070
   271
1070
     3
1070
    41
1040
0.1
1002
}
  0
MTEXT
  5
714
102
{ACAD_REACTORS
330
713
102
}
330
18
100
AcDbEntity
  8
DIMS
100
AcDbMText
 10
1.543289950371957
 20
1.492894057849748
 30
0.0
 40
0.075
 41
0.0
 71
     6
 72
     1
  1
\A1;
  0
INSERT
  5
71A
330
18
100
AcDbEntity
  8
DIMS
100
AcDbBlockReference
  2
A$C3E03409D
 10
1.088656022844688
 20
1.344091160777133
 30
0.0
  0
LEADER
  5
71B
330
18
100
AcDbEntity
  8
DIMS
100
AcDbLeader
  3
STANDARD
 73
     0
 75
     1
 40
0.076575
 41
0.0738
 76
     3
 10
3.38
 20
1.65
 30
0.0
 10
3.271124765860488
 20
1.885530583077758
 30
0.0
 10
3.171124765860488
 20
1.885530583077758
 30
0.0
 77
   256
340
71C
1001
ACAD
1000
DSTYLE
1002
{
1070
     5
1000

1070
    42
1040
0.1
1070
    44
1040
0.0625
1070
   271
1070
     3
1070
    41
1040
0.1
1002
}
  0
MTEXT
  5
71C
102
{ACAD_REACTORS
330
71B
102
}
330
18
100
AcDbEntity
  8
DIMS
100
AcDbMText
 10
3.081124765860488
 20
1.885530583077758
 30
0.0
 40
0.075
 41
0.0
 71
     6
 72
     1
  1
\A1;3.
  0
INSERT
  5
71D
330
18
100
AcDbEntity
  8
DIMS
100
AcDbBlockReference
  2
A$C3E03409D
 10
2.871051554627852
 20
1.774097311006055
 30
0.0
  0
DIMENSION
  5
737
330
18
100
AcDbEntity
  8
DIMS
100
AcDbDimension
  2
*D37
 10
0.8768755991093161
 20
0.5972895784935203
 30
0.0
 11
1.713899767203043
 21
-0.2175833018337125
 31
0.0
 70
   163
  1
<>\P[4] PL
  3
STANDARD
100
AcDbDiametricDimension
 15
0.9231244008906841
 25
0.4027104215064788
 35
0.0
 40
0.0
1001
ACAD
1000
DSTYLE
1002
{
1070
    41
1040
0.1
1070
    43
1040
0.3800000000000001
1070
    44
1040
0.08
1070
   147
1040
0.0
1002
}
  0
CIRCLE
  5
8BA
330
18
100
AcDbEntity
  8
0
100
AcDbCircle
 10
0.4
 20
0.145
 30
0.0
 40
0.02
  0
LWPOLYLINE
  5
8BB
330
18
100
AcDbEntity
  8
0
100
AcDbPolyline
 90
        4
 70
     1
 43
0.0
 10
0.38
 20
0.165
 10
0.38
 20
0.125
 10
0.42
 20
0.125
 10
0.42
 20
0.165
  0
CIRCLE
  5
8C4
330
18
100
AcDbEntity
  8
0
100
AcDbCircle
 10
0.5
 20
0.145
 30
0.0
 40
0.02
  0
DIMENSION
  5
8D3
330
18
100
AcDbEntity
  8
DIMS
100
AcDbDimension
  2
*D38
 10
3.834308662503986
 20
0.4999999999999996
 30
0.0
 11
3.834308662503986
 21
0.2499999999999995
 31
0.0
 70
   160
  1
<>
  3
DEF_STANDARD
100
AcDbAlignedDimension
 13
3.6
 23
-0.0000000000000004
 33
0.0
 14
2.79
 24
0.4999999999999996
 34
0.0
 50
90.0
100
AcDbRotatedDimension
  0
MTEXT
  5
A64
330
18
100
AcDbEntity
  8
DIMS
100
AcDbMText
 10
4.237196940518182
 20
3.822732193443786
 30
0.0
 40
0.375
 41
3.8098
 71
     1
 72
     5
  1
\fDenmark|b0|i0|c0|p2;LabJack\fArial|b0|i0|c0|p34; - U3
  0
LINE
  5
1231
330
18
100
AcDbEntity
  8
DIMS
100
AcDbLine
 10
2.0
 20
0.5000000000000001
 30
0.0
 11
2.0
 21
0.68
 31
0.0
  0
LINE
  5
1232
330
18
100
AcDbEntity
  8
DIMS
100
AcDbLine
 10
1.91
 20
0.5900000000000001
 30
0.0
 11
2.09
 21
0.5900000000000001
 31
0.0
  0
LINE
  5
1233
330
18
100
AcDbEntity
  8
DIMS
100
AcDbLine
 10
0.2979999929000002
 20
0.5910000357
 30
0.0
 11
0.4779999929000002
 21
0.5910000357
 31
0.0
  0
LINE
  5
1234
102
{ACAD_REACTORS
102
}
330
18
100
AcDbEntity
  8
DIMS
100
AcDbLine
 10
0.3879999929000002
 20
0.6810000357
 30
0.0
 11
0.3879999929000002
 21
0.5010000357
 31
0.0
  0
CIRCLE
  5
1A85
330
18
100
AcDbEntity
  8
0
  6
CONTINUOUS
100
AcDbCircle
 10
0.3089999929000005
 20
0.6890000356999999
 30
0.0
 40
0.0200000000000005
  0
CIRCLE
  5
1A86
330
18
100
AcDbEntity
  8
0
  6
CONTINUOUS
100
AcDbCircle
 10
0.2029999929000006
 20
0.8760000356999997
 30
0.0
 40
0.0479999999999996
  0
CIRCLE
  5
1A87
330
18
100
AcDbEntity
  8
0
  6
CONTINUOUS
100
AcDbCircle
 10
0.3879999929000002
 20
0.6890000356999999
 30
0.0
 40
0.02
  0
CIRCLE
  5
1A89
330
18
100
AcDbEntity
  8
0
  6
CONTINUOUS
100
AcDbCircle
 10
0.2029999929000006
 20
0.4040000356999998
 30
0.0
 40
0.0480000000000005
  0
CIRCLE
  5
1A8A
330
18
100
AcDbEntity
  8
0
  6
CONTINUOUS
100
AcDbCircle
 10
0.3089999929000005
 20
0.5910000357
 30
0.0
 40
0.0200000000000005
  0
CIRCLE
  5
1A94
330
18
100
AcDbEntity
  8
0
  6
CONTINUOUS
100
AcDbCircle
 10
3.253732276400001
 20
1.6266500357
 30
0.0
 40
0.0195000000000007
  0
CIRCLE
  5
1A95
330
18
100
AcDbEntity
  8
0
  6
CONTINUOUS
100
AcDbCircle
 10
3.141732276399999
 20
1.5720000357
 30
0.0
 40
0.0194999999999999
  0
CIRCLE
  5
1A96
330
18
100
AcDbEntity
  8
0
  6
CONTINUOUS
100
AcDbCircle
 10
3.141732276399999
 20
1.0270000357
 30
0.0
 40
0.0195000000000007
  0
CIRCLE
  5
1A97
330
18
100
AcDbEntity
  8
0
  6
CONTINUOUS
100
AcDbCircle
 10
3.141732276399999
 20
0.9180000357
 30
0.0
 40
0.0195000000000003
  0
CIRCLE
  5
1A99
330
18
100
AcDbEntity
  8
0
  6
CONTINUOUS
100
AcDbCircle
 10
3.253732276400001
 20
1.5176500357
 30
0.0
 40
0.0195000000000007
  0
CIRCLE
  5
1A9A
330
18
100
AcDbEntity
  8
0
  6
CONTINUOUS
100
AcDbCircle
 10
3.253732276400001
 20
1.4086500357
 30
0.0
 40
0.0195000000000007
  0
CIRCLE
  5
1A9B
330
18
100
AcDbEntity
  8
0
  6
CONTINUOUS
100
AcDbCircle
 10
3.253732276400001
 20
1.2996500357
 30
0.0
 40
0.0194999999999999
  0
CIRCLE
  5
1A9C
330
18
100
AcDbEntity
  8
0
  6
CONTINUOUS
100
AcDbCircle
 10
3.253732276400001
 20
1.1906500357
 30
0.0
 40
0.0194999999999999
  0
CIRCLE
  5
1A9D
330
18
100
AcDbEntity
  8
0
  6
CONTINUOUS
100
AcDbCircle
 10
3.253732276400001
 20
1.0816500357
 30
0.0
 40
0.0194999999999999
  0
CIRCLE
  5
1A9E
330
18
100
AcDbEntity
  8
0
  6
CONTINUOUS
100
AcDbCircle
 10
3.253732276400001
 20
0.9726500357000001
 30
0.0
 40
0.0194999999999994
  0
CIRCLE
  5
1A9F
330
18
100
AcDbEntity
  8
0
  6
CONTINUOUS
100
AcDbCircle
 10
3.141732276399999
 20
1.1360000357
 30
0.0
 40
0.0194999999999999
  0
CIRCLE
  5
1AA0
330
18
100
AcDbEntity
  8
0
  6
CONTINUOUS
100
AcDbCircle
 10
3.141732276399999
 20
1.2450000357
 30
0.0
 40
0.0194999999999999
  0
CIRCLE
  5
1AA1
330
18
100
AcDbEntity
  8
0
  6
CONTINUOUS
100
AcDbCircle
 10
3.141732276399999
 20
1.3540000357
 30
0.0
 40
0.0194999999999999
  0
CIRCLE
  5
1AA6
330
18
100
AcDbEntity
  8
0
  6
CONTINUOUS
100
AcDbCircle
 10
3.141732276399999
 20
1.6810000357
 30
0.0
 40
0.0194999999999999
  0
CIRCLE
  5
1AAA
330
18
100
AcDbEntity
  8
0
  6
CONTINUOUS
100
AcDbCircle
 10
3.141732276399999
 20
1.4630000357
 30
0.0
 40
0.0194999999999999
  0
DIMENSION
  5
1AAF
102
{ACAD_REACTORS
102
}
102
{ACAD_XDICTIONARY
360
1AB0
102
}
330
18
100
AcDbEntity
  8
DIMS
100
AcDbDimension
  2
*D42
 10
-0.614082353848945
 20
0.5910000357000001
 30
0.0
 11
-0.614082353848945
 21
0.2955000178500001
 31
0.0
 70
    32
  3
DEF_STANDARD
100
AcDbAlignedDimension
 13
0.0
 23
0.0
 33
0.0
 14
0.3879999929000002
 24
0.5910000357
 34
0.0
 50
90.0
100
AcDbRotatedDimension
  0
DIMENSION
  5
1ABF
102
{ACAD_REACTORS
102
}
102
{ACAD_XDICTIONARY
360
1AC0
102
}
330
18
100
AcDbEntity
  8
DIMS
100
AcDbDimension
  2
*D43
 10
0.3879999929000002
 20
-0.1872774922682121
 30
0.0
 11
0.1939999964500001
 21
-0.1872774922682121
 31
0.0
 70
    32
  3
DEF_STANDARD
100
AcDbAlignedDimension
 13
0.0
 23
0.0
 33
0.0
 14
0.3879999929000002
 24
0.5910000357
 34
0.0
100
AcDbRotatedDimension
  0
ENDSEC
  0
SECTION
  2
OBJECTS
  0
DICTIONARY
  5
C
330
0
100
AcDbDictionary
  3
ACAD_GROUP
350
D
  3
ACAD_IMAGE_VARS
350
1A38
  3
ACAD_MLINESTYLE
350
1B
  3
ACAD_SCALELIST
350
1A0C
  3
ACDBVARIABLEDICTIONARY
350
14D2
  3
APPDATA
350
1A36
  3
DWGPROPS
350
1AD2
  0
DICTIONARY
  5
1AAB
330
2
100
AcDbDictionary
280
     1
  3
ACAD_LAYERSTATES
360
1AAC
  0
DICTIONARY
  5
1AB0
330
1AAF
100
AcDbDictionary
280
     1
  0
DICTIONARY
  5
1AC0
330
1ABF
100
AcDbDictionary
280
     1
  0
DICTIONARY
  5
D
102
{ACAD_REACTORS
330
C
102
}
330
C
100
AcDbDictionary
  0
RASTERVARIABLES
  5
1A38
102
{ACAD_REACTORS
330
C
102
}
330
C
100
AcDbRasterVariables
 90
        0
 70
     1
 71
     1
 72
     0
  0
DICTIONARY
  5
1B
102
{ACAD_REACTORS
330
C
102
}
330
C
100
AcDbDictionary
  3
STANDARD
350
1C
  0
DICTIONARY
  5
1A0C
102
{ACAD_REACTORS
330
C
102
}
330
C
100
AcDbDictionary
  0
DICTIONARY
  5
14D2
330
C
100
AcDbDictionary
  3
DIMADEC
350
19F2
  0
DICTIONARY
  5
1A36
102
{ACAD_REACTORS
330
C
102
}
330
C
100
AcDbDictionary
  0
XRECORD
  5
1AD2
102
{ACAD_REACTORS
330
C
102
}
330
C
100
AcDbXrecord
  1
DWGPROPS COOKIE
  2

  3

  4

  6

  7

  8
Tim
  9

300
=
301
=
302
=
303
=
304
=
305
=
306
=
307
=
308
=
309
=
 40
0.0
 41
2456052.268303287
 42
2458160.000994387
  1

 90
        0
  0
DICTIONARY
  5
1AAC
102
{ACAD_REACTORS
330
1AAB
102
}
330
1AAB
100
AcDbDictionary
  0
MLINESTYLE
  5
1C
102
{ACAD_REACTORS
330
1B
102
}
330
1B
100
AcDbMlineStyle
  2
Standard
 70
     0
  3

 62
   256
 51
90.0
 52
90.0
 71
     2
 49
0.5
 62
   256
  6
BYLAYER
 49
-0.5
 62
   256
  6
BYLAYER
  0
DICTIONARYVAR
  5
19F2
330
14D2
100
DictionaryVariables
280
     0
  1
0
  0
ENDSEC
  0
EOF
